В поисках капитана Гранта (1985) WEB-DLRip [H.264] скачать торрент

Reply to topic

DL-List and Torrent activity [Update пиров]
Size:  19.94 GB   |    Registered:  18 days   |    Completed:  0 times
Seeders:  3  [  0 KB/s  ]   Show peers in full details
 
 
 
 
Author Message

BiOS ®

Longevity: 5 years 6 months

Posts: 2341

Location: Earth


Post 16-Jul-2015 06:29

[Quote]

В поисках капитана Гранта - • Производство: СССР, Болгария / Киностудия «Бояна», Гостелерадио, Одесская киностудия
• Жанр: Приключения
• Режиссер: Станислав Говорухин
• Сценарий: Станислав Говорухин, Жюль Верн
• Директор фильма: Джемила Панибрат
• Оператор: Тимур Зельма
• Композитор: Максим Дунаевский, Игорь Кантюков, Исаак Дунаевский
• Художник: Валентин Гидулянов, Никола Костадинов, Татьяна Крапивная
• Монтаж: Добрина Минова, Валентина Олейник
• Актеры: Владимир Смирнов, Лембит Ульфсак, Николай Ерёменко мл., Тамара Акулова, Владимир Гостюхин, Олег Штефанко, Анатолий Рудаков, Галина Струтинская, Руслан Курашов, Улдис Ваздикс, Александр Абдулов, Борис Хмельницкий, Фёдор Одиноков, Марина Влади, Коста Цонев, Явор Милушев, Аня Пенчева, Джордже Росич, Пётр Слабаков, Лычезар Стоянов, Марин Янев, Георгий Стоянов, Рудольф Мухин, Владимир Жариков и др.
• Описание фильма:
Капитан Грант пустился в опасное плавание, чтобы основать вольное шотландское поселение на островах Тихого океана. Но его корабль терпит крушение, и лишь полуразмытая записка в бутылке доносит обрывочные сведения о Гранте.
Лорд Гленарван на свой страх и риск отправляется на поиски, взяв с собой детей капитана — Мэри и Роберта. Путь отважных путешественников лежит через острова Атлантики, горы и пампасы Новой Зеландии и Австралии, просторы Тихого океана, где их поджидают всевозможные приключения.

Возраст: 12+ (зрителям, достигшим 12 лет)
Дата премьеры мир: 13 марта 1986
Дата выхода DVD релиза: 12 марта 2009, «Мьюзик-Трейд»
• Продолжительность: 01:04:39 (7 серий)
• Качество видео: WEB-DLRip
• Видео: AVC/H.264, 864x648, ~4980 Кбит/с
• Аудио: AC3, 2 ch, 192, CBR

Mediainfo

Код:
General
Format                                   : Matroska
Format version                           : Version 2
File size                                : 3.12 GiB
Duration                                 : 1 h 4 min
Overall bit rate                         : 6 933 kb/s
Movie name                               : В поисках капитана Гранта_1985-WEB-DLRip-AVC_KORSAR
Encoded date                             : UTC 2017-10-15 10:27:31
Writing application                      : mkvmerge v5.8.0 ('No Sleep / Pillow') built on Sep  2 2012 15:37:04
Writing library                          : libebml v1.2.3 + libmatroska v1.3.0
Video
ID                                       : 1
Format                                   : AVC
Format/Info                              : Advanced Video Codec
Format profile                           : [email protected]
Format settings, CABAC                   : Yes
Format settings, RefFrames               : 14 frames
Codec ID                                 : V_MPEG4/ISO/AVC
Duration                                 : 1 h 4 min
Bit rate                                 : 6 155 kb/s
Width                                    : 864 pixels
Height                                   : 648 pixels
Display aspect ratio                     : 4:3
Frame rate mode                          : Constant
Frame rate                               : 25.000 FPS
Color space                              : YUV
Chroma subsampling                       : 4:2:0
Bit depth                                : 8 bits
Scan type                                : Progressive
Bits/(Pixel*Frame)                       : 0.440
Stream size                              : 2.77 GiB (89%)
Writing library                          : x264 core 148 r2744kMod b97ae06
Encoding settings                        : cabac=1 / ref=14 / deblock=1:-1:-1 / analyse=0x3:0x113 / me=umh / subme=10 / psy=1 / fade_compensate=0.00 / psy_rd=1.00:0.00 / mixed_ref=1 / me_range=32 / chroma_me=1 / trellis=2 / 8x8dct=1 / cqm=0 / deadzone=21,11 / fast_pskip=1 / chroma_qp_offset=-2 / threads=12 / lookahead_threads=2 / sliced_threads=0 / nr=0 / decimate=1 / interlaced=0 / bluray_compat=0 / constrained_intra=0 / bframes=9 / b_pyramid=2 / b_adapt=2 / b_bias=0 / direct=1 / weightb=1 / open_gop=0 / weightp=2 / keyint=250 / keyint_min=25 / scenecut=40 / intra_refresh=0 / rc=crf / mbtree=0 / crf=17.3000 / qcomp=0.63 / qpmin=0 / qpmax=39 / qpstep=4 / ip_ratio=1.40 / pb_ratio=1.30 / aq=2:0.70
Language                                 : English
Default                                  : Yes
Forced                                   : No
Color range                              : Limited
Color primaries                          : BT.709
Transfer characteristics                 : BT.709
Matrix coefficients                      : BT.709
Audio #1
ID                                       : 2
Format                                   : AC-3
Format/Info                              : Audio Coding 3
Format settings, Endianness              : Big
Codec ID                                 : A_AC3
Duration                                 : 1 h 4 min
Bit rate mode                            : Constant
Bit rate                                 : 448 kb/s
Channel(s)                               : 6 channels
Channel positions                        : Front: L C R, Side: L R, LFE
Sampling rate                            : 48.0 kHz
Frame rate                               : 31.250 FPS (1536 SPF)
Bit depth                                : 16 bits
Compression mode                         : Lossy
Delay relative to video                  : 1 s 250 ms
Stream size                              : 207 MiB (6%)
Language                                 : Russian
Service kind                             : Complete Main
Default                                  : Yes
Forced                                   : No
Audio #2
ID                                       : 3
Format                                   : AC-3
Format/Info                              : Audio Coding 3
Format settings, Endianness              : Big
Codec ID                                 : A_AC3
Duration                                 : 1 h 4 min
Bit rate mode                            : Constant
Bit rate                                 : 192 kb/s
Channel(s)                               : 2 channels
Channel positions                        : Front: L R
Sampling rate                            : 48.0 kHz
Frame rate                               : 31.250 FPS (1536 SPF)
Bit depth                                : 16 bits
Compression mode                         : Lossy
Delay relative to video                  : 1 s 250 ms
Stream size                              : 88.6 MiB (3%)
Language                                 : Russian
Service kind                             : Complete Main
Default                                  : No
Forced                                   : No
Menu
00:00:00.000                             : en:Chapter 1
00:02:00.600                             : en:Chapter 2
00:10:10.440                             : en:Chapter 3
00:15:03.720                             : en:Chapter 4
00:19:26.160                             : en:Chapter 5
00:24:20.280                             : en:Chapter 6
00:27:34.080                             : en:Chapter 7
00:33:25.800                             : en:Chapter 8
00:40:39.480                             : en:Chapter 9
00:46:53.520                             : en:Chapter 10
00:54:42.480                             : en:Chapter 11
00:57:41.040                             : en:Chapter 12
01:04:29.640                             : en:Chapter 13

Список серий

    01. С Жюль Верном вокруг Света
    02. 37 параллель
    03. Талькав
    04. Золотой бог
    05. Бен Джойс
    06. В плену у каннибалов
    07. Робинзон Океании

Знаете ли вы, что...

  • Натурой для съёмок фильма послужили пейзажи Болгарии, Крыма, акватория Чёрного моря и парусник «Товарищ».
  • Образец военной формы, которую носит майор Мак-Наббс, был введён в шотландских войсках после 1881 года, т. е. значительно позже событий, описанных в фильме.
  • Сюжет о Патагонии снимался в окрестностях болгарского города Белоградчик.
  • В качестве «Дункана» во время съёмок фильма была использована трехмачтовая бермудская шхуна «Кодор».
  • В фильме использована увертюра Исаака Дунаевского из фильма «Дети капитана Гранта» (1936).
-Скриншоты:


Смотреть онлайн


[trackeroc.org].6996.torrent 
Torrent: Registered   [ 2019-10-25 02:27 ]

Скачать торрент

51 KB

Status: checked
Completed: 139 times
Size: 19.94 GB
 

Admin (16-июл-15)
Similar torrent
Forum Topic Author Size
Visual Novel, Визуальные новеллы Ushinawareta Mirai wo Motomete / В поисках утраченного будущего [VN][Trumple][18+][RUS] Admin 2.44 GB
Зарубежные В поисках Дори / Finding Dory (2016) WEB-DLRip [H.264] Admin 1.95 GB
Квесты, я ищу, Поиск предметов, Hidden Object Amaranthine Voyage 3: The Shadow of Torment/В поисках бессмертия 3:Тень Тормента(2014) (Big Fish Games) (RUS) HOPE 1.11 GB
Логические, головоломки, пазлы Alchemy Quest / В поисках Алхимии (2014) (Big Fish Games) (RUS) Admin 53 MB

_________________
[Profile] [PM]
Display posts from previous:    
Reply to topic

The time now is: Today 22:56

All times are GMT + 4 Hours



You cannot post new topics in this forum
You cannot reply to topics in this forum
You cannot edit your posts in this forum
You cannot delete your posts in this forum
You cannot vote in polls in this forum
You cannot attach files in this forum
You can download files in this forum