Воспитывая Диона / Raising Dion (2019) WEBRip (сезон 1, серии 1-9 из 9) Невафильм скачать торрент

Reply to topic

DL-List and Torrent activity [Update пиров]
Size:  17.39 GB   |    Registered:  8 days   |    Completed:  0 times
Seeders:  2  [  172 KB/s  ]   Show peers in full details
 
 
 
 
Author Message

BiOS ®

Longevity: 5 years 5 months

Posts: 2337

Location: East Siberia


Post 07-Oct-2019 14:31

[Quote]

Воспитывая Диона / Raising Dion
«The streets are theirs»
- Производство: США / MACRO, Outlier Society Productions, NetFlix
Жанр: Фантастика, драма
Режиссер: Нима Барнетт, Рэйчел Голдберг, Dennis A. Liu
Актеры: Алиша Вейнрайт, Гэвин Мунн, Дэна Гурье, Джастис Лик, Кайлен Дэвис, Мэтт Льюис, Марк Менчака, Джейсон Риттер, Али Ан, Лорен Бульоли, Диана Чиритеску и др.
Описание:
История о темнокожей матери-одиночке Николь Риз, которая после гибели мужа растит малолетнего сына Диона. Рутинные семейные хлопоты осложняются тем, что мальчик обладает широким набором крайне изменчивых сверхспособностей: от превращения в невидимку до метания файерболов. На плечи Николь ложится дополнительная ответственность — сохранить суперсилы Диона в тайне.

Дата мировой премьеры: 4 октября 2019
Продолжительность: ~00:43:00 серия
Качество видео: WEBRip
Перевод: Профессиональный (полное дублирование) | Невафильм по заказу Netflix
Субтитры: Русские, Английские
Видео: AVC, 1920x1080, 23.976 fps, 5620 Кбит/с
Аудио #1: E-AC3, 640 kb/s, 6 ch, 48.0 KHz [Russian]
Аудио #2: E-AC3, 768 kb/s, 6 ch, 48.0 KHz [English]

MediaInfo:

Общее
Уникальный идентификатор : 46326327620627227586344085265518163862 (0x22DA204BE0C2ACD920A0A4C25D6FF796)
Полное имя : Raising.Dion.S01E01.1080p.WEB-DL.DUB.EniaHD.mkv
Формат : Matroska
Версия формата : Version 4
Размер файла : 2,02 Гбайт
Продолжительность : 42 м. 29 с.
Режим общего битрейта : Переменный
Общий поток : 6814 Кбит/сек
Дата кодирования : UTC 2019-10-04 09:28:26
Программа кодирования : mkvmerge v37.0.0 ('Leave It') 64-bit
Библиотека кодирования : libebml v1.3.9 + libmatroska v1.5.2
Обложка : Yes
Attachments : cover.raising.dion.jpg
Видео
Идентификатор : 1
Формат : AVC
Формат/Информация : Advanced Video Codec
Профиль формата : [email protected]
Настройки формата : CABAC / 3 Ref Frames
Параметр CABAC формата : Да
Параметр RefFrames формата : 3 кадра
Идентификатор кодека : V_MPEG4/ISO/AVC
Продолжительность : 42 м. 29 с.
Вид битрейта : Переменный
Битрейт : 5620 Кбит/сек
Максимальный битрейт : 8430 Кбит/сек
Ширина : 1920 пикселей
Высота : 1080 пикселей
Соотношение сторон : 16:9
Режим частоты кадров : Постоянный
Частота кадров : 23,976 (24000/1001) кадра/сек
Цветовое пространство : YUV
Субдискретизация насыщенности : 4:2:0
Битовая глубина : 8 бит
Тип развёртки : Прогрессивная
Бит/(Пиксели*Кадры) : 0.113
Размер потока : 1,60 Гбайт (79%)
Заголовок : Release by Zgurvas for EniaHD
Библиотека кодирования : x264 core 148 r2715 7e75228
Настройки программы : cabac=1 / ref=3 / deblock=1:0:0 / analyse=0x1:0x111 / me=umh / subme=10 / psy=1 / psy_rd=1.00:0.00 / mixed_ref=1 / me_range=24 / chroma_me=1 / trellis=2 / 8x8dct=0 / cqm=0 / deadzone=21,11 / fast_pskip=1 / chroma_qp_offset=-2 / threads=8 / lookahead_threads=1 / sliced_threads=0 / nr=0 / decimate=1 / interlaced=0 / bluray_compat=0 / stitchable=1 / constrained_intra=0 / bframes=2 / b_pyramid=0 / b_adapt=2 / b_bias=0 / direct=3 / weightb=1 / open_gop=0 / weightp=2 / keyint=250 / keyint_min=23 / scenecut=0 / intra_refresh=0 / rc_lookahead=48 / rc=2pass / mbtree=1 / bitrate=5620 / ratetol=1.0 / qcomp=0.50 / qpmin=6 / qpmax=51 / qpstep=4 / cplxblur=20.0 / qblur=0.5 / vbv_maxrate=8430 / vbv_bufsize=11240 / nal_hrd=vbr / filler=0 / ip_ratio=1.40 / aq=1:1.00
Язык : English
Default : Да
Forced : Нет
Аудио #1
Идентификатор : 2
Формат : E-AC-3
Формат/Информация : Enhanced AC-3
Коммерческое название : Dolby Digital Plus
Идентификатор кодека : A_EAC3
Продолжительность : 42 м. 29 с.
Вид битрейта : Постоянный
Битрейт : 640 Кбит/сек
Каналы : 6 каналов
ChannelLayout : L R C LFE Ls Rs
Частота : 48,0 КГц
Частота кадров : 31,250 кадров/сек (1536 SPF)
Метод сжатия : С потерями
Размер потока : 195 Мбайт (9%)
Заголовок : E-AC3 5.1 @ 640 kbps - DUB, Невафильм
Язык : Russian
ServiceKind/String : Complete Main
Default : Да
Forced : Нет
Аудио #2
Идентификатор : 3
Формат : E-AC-3 JOC
Формат/Информация : Enhanced AC-3 with Joint Object Coding
Коммерческое название : Dolby Digital Plus with Dolby Atmos
Идентификатор кодека : A_EAC3
Продолжительность : 42 м. 29 с.
Вид битрейта : Постоянный
Битрейт : 768 Кбит/сек
Каналы : 6 каналов
ChannelLayout : L R C LFE Ls Rs
Частота : 48,0 КГц
Частота кадров : 31,250 кадров/сек (1536 SPF)
Метод сжатия : С потерями
Размер потока : 233 Мбайт (11%)
Заголовок : E-AC3 + Atmos 5.1 @ 768 kbps - Original
Язык : English
ServiceKind/String : Complete Main
Default : Нет
Forced : Нет
ComplexityIndex : 16
NumberOfDynamicObjects : 15
BedChannelCount/String : 1 канал
BedChannelConfiguration : LFE
Текст #1
Идентификатор : 4
Формат : UTF-8
Идентификатор кодека : S_TEXT/UTF8
Идентификатор кодека/Информация : UTF-8 Plain Text
Продолжительность : 41 м. 27 с.
Битрейт : 1 бит/сек
ElementCount : 11
Размер потока : 423 байт (0%)
Заголовок : Forced
Язык : Russian
Default : Да
Forced : Да
Текст #2
Идентификатор : 5
Формат : UTF-8
Идентификатор кодека : S_TEXT/UTF8
Идентификатор кодека/Информация : UTF-8 Plain Text
Продолжительность : 41 м. 27 с.
Битрейт : 83 бит/сек
ElementCount : 479
Размер потока : 25,3 Кбайт (0%)
Заголовок : Full
Язык : Russian
Default : Нет
Forced : Нет
Текст #3
Идентификатор : 6
Формат : UTF-8
Идентификатор кодека : S_TEXT/UTF8
Идентификатор кодека/Информация : UTF-8 Plain Text
Продолжительность : 39 м. 46 с.
Битрейт : 78 бит/сек
ElementCount : 780
Размер потока : 22,9 Кбайт (0%)
Заголовок : Full SDH
Язык : English
Default : Нет
Forced : Нет
-Скриншоты:


Смотреть онлайн


[trackeroc.org].29294.torrent 
Torrent: Registered   [ 2019-10-07 14:31 ]

Скачать торрент

89 KB

Status: checked
Completed: 7 times
Size: 17.39 GB
 


_________________
[Profile] [PM]
Display posts from previous:    
Reply to topic

The time now is: Today 02:10

All times are GMT + 4 Hours



You cannot post new topics in this forum
You cannot reply to topics in this forum
You cannot edit your posts in this forum
You cannot delete your posts in this forum
You cannot vote in polls in this forum
You cannot attach files in this forum
You can download files in this forum