Земля-I / The I-Land (2019) WEB-DLRip (сезон 1, серии 1-7 из 7) Невафильм скачать торрент

Reply to topic

DL-List and Torrent activity [Update пиров]
Size:  3.97 GB   |    Registered:  1 month   |    Completed:  0 times
Seeders:  14  [  323 KB/s  ]   Leechers:  1  [  5 MB/s  ]   Show peers in full details
 
 
 
 
Author Message

Admin ®

Longevity: 5 years 5 months

Posts: 8791

Location: Скачать торрент


Post 13-Sep-2019 14:08

[Quote]

Земля-I / The I-Land
«Welcome to the I-Land»
- Производство: США / Netflix, Nomadic Pictures
Жанр: фантастика, драма, детектив, приключения
Режиссер: Джонатан Скарф, Дарнелл Мартин, Нил ЛаБут
Актеры: Натали Мартинес, Кейт Босворт, Рональд Пит, Сибилла Дин, Жиль Джиари, Кайл Шмид, Энтони Ли Медина, Кота Эберхардт, Мишель Вентимилла, Мария Кончита Алонсо
Описание:
На загадочном острове просыпаются десять незнакомцев. Они не помнят своих имён и не представляют, как здесь оказались. Они лишь знают, что должны выбраться с острова, для этого им предстоит пережить серию жестоких и пугающих испытаний.

Дата мировой премьеры: 12 сентября 2019
Продолжительность: ~00:42:00 серия
Качество видео: WEB-DLRip
Перевод: Дублированный - Невафильм по заказу Netflix
Субтитры: русские (форс., полные), английские (SDH)
Видео: Xvid, 704x352, ~1600 Kbps
Аудио #1: AC3, 2 ch, 192 Kbps - русский
Аудио #2: AC3, 2 ch, 192 Kbps - английский

MediaInfo:

Общее
Полное имя : The.I-Land.S01E01.WEB-DLRip.Rus.Eng.NevaFilm. .avi
Формат : AVI
Формат/Информация : Audio Video Interleave
Размер файла : 611 Мбайт
Продолжительность : 42 м. 45 с.
Общий поток : 1998 Кбит/сек
Название фильма : Земля I 1х01: Дивный новый мир
Режиссёр : Бёдвар (WEB-DLRip)
Программа кодирования : VirtualDubModRus 1.5.10.2 (build 2542/release)
Примечание : 12.09.2019
Видео
Идентификатор : 0
Формат : MPEG-4 Visual
Профиль формата : Advanced [email protected]
Настройки формата : BVOP1
Параметр BVOP формата : 1
Параметр QPel формата : Нет
Параметр GMC формата : Без точки перехода
Параметр матрицы формата : Default (MPEG)
Идентификатор кодека : XVID
Идентификатор кодека/Подсказка : XviD
Продолжительность : 42 м. 45 с.
Битрейт : 1600 Кбит/сек
Ширина : 704 пикселя
Высота : 352 пикселя
Соотношение сторон : 2,000
Частота кадров : 23,976 (24000/1001) кадра/сек
Цветовое пространство : YUV
Субдискретизация насыщенности : 4:2:0
Битовая глубина : 8 бит
Тип развёртки : Прогрессивная
Метод сжатия : С потерями
Бит/(Пиксели*Кадры) : 0.269
Размер потока : 489 Мбайт (80%)
Библиотека кодирования : XviD 67
Аудио #1
Идентификатор : 1
Формат : AC-3
Формат/Информация : Audio Coding 3
Коммерческое название : Dolby Digital
Идентификатор кодека : 2000
Продолжительность : 42 м. 45 с.
Вид битрейта : Постоянный
Битрейт : 192 Кбит/сек
Каналы : 2 канала
ChannelLayout : L R
Частота : 48,0 КГц
Частота кадров : 31,250 кадров/сек (1536 SPF)
Метод сжатия : С потерями
Размер потока : 58,7 Мбайт (10%)
Выравнивание : Разделение по промежуткам
Продолжительность промежутка : 42 мс. (1,00 видеокадр)
Время предзагрузки промежутка : 500 мс.
ServiceKind/String : Complete Main
Аудио #2
Идентификатор : 2
Формат : AC-3
Формат/Информация : Audio Coding 3
Коммерческое название : Dolby Digital
Идентификатор кодека : 2000
Продолжительность : 42 м. 45 с.
Вид битрейта : Постоянный
Битрейт : 192 Кбит/сек
Каналы : 2 канала
ChannelLayout : L R
Частота : 48,0 КГц
Частота кадров : 31,250 кадров/сек (1536 SPF)
Метод сжатия : С потерями
Размер потока : 58,7 Мбайт (10%)
Выравнивание : Разделение по промежуткам
Продолжительность промежутка : 42 мс. (1,00 видеокадр)
Время предзагрузки промежутка : 500 мс.
ServiceKind/String : Complete Main
-Скриншоты:


Смотреть онлайн


[trackeroc.org].29111.torrent 
Torrent: Registered   [ 2019-09-15 03:01 ]

Скачать торрент

23 KB

Status: checked
Completed: 37 times
Size: 3.97 GB
 

BiOS (15-сен-19)
Similar torrent
Forum Topic Author Size
Документальные ,Трейлеры Земля медведей / Terre des ours / Land of the Bears (2013) BDRip [H.264/1080p] [PR] BiOS 10.33 GB
Боевики Выжженная земля / Scorched Earth Admin 1.46 GB
Strategy, Стратегии Onimod Land / Земля онимодов [L] [RUS + ENG / RUS + ENG] (2017) (3.0) Admin 111 MB
Strategy Anomaly: Warzone Earth / Аномалия: Поле битвы Земля (2011) [Ru/Multi] (1.0) GOG Admin 550 MB

_________________
[Profile] [PM]
Display posts from previous:    
Reply to topic

The time now is: Today 12:46

All times are GMT + 4 Hours



You cannot post new topics in this forum
You cannot reply to topics in this forum
You cannot edit your posts in this forum
You cannot delete your posts in this forum
You cannot vote in polls in this forum
You cannot attach files in this forum
You can download files in this forum