Звёздная принцесса и силы зла / Стар против Сил Зла / Star vs. the Forces of Evil (2015) WEB-DL (сезон 1, серии 1-13 из 13) Кириллица скачать торрент

Reply to topic

DL-List and Torrent activity [Update пиров]
Size:  11.37 GB   |    Registered:  1 month 6 days   |    Completed:  0 times
Seeders:  5  [  32 KB/s  ]   Leechers:  1  [  39 KB/s  ]   Show peers in full details
 
 
 
 
Author Message

BiOS ®

Longevity: 5 years 5 months

Posts: 2337

Location: East Siberia


Post 18-Oct-2015 08:32

[Quote]

Звёздная принцесса и силы зла / Стар против Сил Зла / Star vs. the Forces of Evil
«In 2015. Star Butterfly will come to Earth and change the lives of the Diaz family forever!»
- Производство: США / Daron Nefcy Productions, Disney XD, Walt Disney Television Animation
Жанр: мультфильм, фантастика, фэнтези, комедия, приключения, семейный
Режиссер: Аарон Хэммерсли, Пьеро Пилузо, Дэвид Вассон
Актеры: Иден Шер - Star Butterfly, Адам МакАртур - Marco Diaz, Грэй Гриффин - Queen Butterfly, Алан Тьюдик - Ludo и др.
Описание:
История о девочке, живущей в ином измерении, по имени Стар Баттерфляй, которая получила в 14 лет волшебную палочку. Но после того, как Стар чуть ли не превратила свой родной город в прах, родители отправили её в другое измерение, которое называется Земля, чтобы жить с семьёй Диаз, которая состоит из добродушных родителей и подростка по имени Марко. Все одноклассники и друзья считают его тихоней, который остерегается даже обыкновенного падения. Марко считает это неправдой, и из-за такой репутации подросток жаждет приключений и опасностей.

Продолжительность: ~ 00:22:00 серия
Качество видео: WEB-DL
Перевод: Дублированный, профессиональный - Кириллица
Видео: AVC/H.264, 1920x1080 (16:9), ~5 210 kbps
Аудио Rus: AC3, 48,0 kHz, 2 ch, 640 kbps - дублированный
Аудио Eng: AAC, 48,0 kHz, 2 ch, 154 kbps - оригинал

MediaInfo

Код:
General
Unique ID                   : 149744729266287549958033168763994594970 (0x70A7C92AE5B306A7744DDB944FE15E9A)
Complete name               : S01E01 Star Comes to Earth. Party With a Pony.mkv
Format                      : Matroska
Format version              : Version 4
File size                   : 951 MiB
Duration                    : 22 min 7 s
Overall bit rate            : 6 009 kb/s
Encoded date                : UTC 2019-04-30 01:23:50
Writing application         : mkvmerge v33.1.0 ('Primrose') 64-bit
Writing library             : libebml v1.3.7 + libmatroska v1.5.0
Video
ID                          : 1
Format                      : AVC
Format/Info                 : Advanced Video Codec
Format profile              : [email protected]
Format settings             : CABAC / 4 Ref Frames
Format settings, CABAC      : Yes
Format settings, ReFrames   : 4 frames
Codec ID                    : V_MPEG4/ISO/AVC
Duration                    : 22 min 7 s
Bit rate                    : 5 211 kb/s
Width                       : 1 920 pixels
Height                      : 1 080 pixels
Display aspect ratio        : 16:9
Frame rate mode             : Constant
Frame rate                  : 23.976 (24000/1001) FPS
Color space                 : YUV
Chroma subsampling          : 4:2:0
Bit depth                   : 8 bits
Scan type                   : Progressive
Bits/(Pixel*Frame)          : 0.105
Stream size                 : 824 MiB (87%)
Language                    : English
Default                     : Yes
Forced                      : No
Color range                 : Limited
Color primaries             : BT.709
Transfer characteristics    : BT.709
Matrix coefficients         : BT.709
Audio #1
ID                          : 2
Format                      : AAC LC
Format/Info                 : Advanced Audio Codec Low Complexity
Codec ID                    : A_AAC-2
Duration                    : 22 min 7 s
Bit rate                    : 154 kb/s
Channel(s)                  : 2 channels
Channel layout              : L R
Sampling rate               : 48.0 kHz
Frame rate                  : 46.875 FPS (1024 SPF)
Compression mode            : Lossy
Stream size                 : 24.4 MiB (3%)
Title                       : Без перевода
Language                    : English
Default                     : No
Forced                      : No
Audio #2
ID                          : 3
Format                      : AC-3
Format/Info                 : Audio Coding 3
Commercial name             : Dolby Digital
Codec ID                    : A_AC3
Duration                    : 22 min 7 s
Bit rate mode               : Constant
Bit rate                    : 640 kb/s
Channel(s)                  : 2 channels
Channel layout              : L R
Sampling rate               : 48.0 kHz
Frame rate                  : 31.250 FPS (1536 SPF)
Bit depth                   : 16 bits
Compression mode            : Lossy
Stream size                 : 101 MiB (11%)
Title                       : Disney
Language                    : Russian
Service kind                : Complete Main
Default                     : No
Forced                      : No

Список серий

1. Звёздочка прибывает на Землю | Вечеринка с пони
2. Сваха | Школьный дух
3. Рука-монстр | Другой студент по обмену
4. Не унывай, Звёздочка | Приключенческий супермаркет
5. Отпуск семьи Диаз | Вечеринка Бриттани
6. Мьюзревание | Пикстопия
7. Ракорук | Сонное колдовство
8. Бал кровавой луны | Печенья с предсказанием
9. Замороженный день | Королевская боль
10. Школа Святой Ольги для капризных принцесс
11. День Мьюнизависимости | Банановый инцидент
12. Межпространственная экскурсия | Марко растит бороду
13. Штурм замка
-Скриншоты:


Смотреть онлайн


[trackeroc.org].8882.torrent 
Torrent: Registered   [ 2019-09-09 01:49 ]

Скачать торрент

59 KB

Status: checked
Completed: 344 times
Size: 11.37 GB
 

Admin (18-окт-15), Angel (09-сен-19)
Similar torrent
Forum Topic Author Size
Зарубежные Руслан и Людмила: Перезагрузка / Украденная принцесса: Руслан и Людмила / Викрадена принцеса: Руслан i Людмила (2018) BDRip [H.264/1080p] BiOS 6.37 GB
Зарубежные Мультсериалы Звёздная принцесса и силы зла / Стар против Сил Зла / Star vs. the Forces of Evil (2016) WEB-DL (сезон 2, серии 1-22 из 22) Кириллица BiOS 18.39 GB
Зарубежные Мультсериалы Звёздная принцесса и силы зла / Стар против Сил Зла / Star vs. the Forces of Evil (2017) WEB-DL (сезон 4, серии 1-21 из 21) Кириллица BiOS 8.07 GB
Зарубежные Мультсериалы Звёздная принцесса и силы зла / Стар против Сил Зла / Star vs. the Forces of Evil (2017) WEB-DL (сезон 3, серии 1-21 из 21) Кириллица BiOS 17.99 GB

_________________
[Profile] [PM]
Display posts from previous:    
Reply to topic

The time now is: Today 01:44

All times are GMT + 4 Hours



You cannot post new topics in this forum
You cannot reply to topics in this forum
You cannot edit your posts in this forum
You cannot delete your posts in this forum
You cannot vote in polls in this forum
You cannot attach files in this forum
You can download files in this forum