Звёздная принцесса и силы зла / Стар против Сил Зла / Star vs. the Forces of Evil (2017) WEB-DL (сезон 3, серии 1-21 из 21) Кириллица скачать торрент

Reply to topic

DL-List and Torrent activity [Update пиров]
Size:  17.99 GB   |    Registered:  8 days   |    Completed:  0 times
Seeders:  5  [  101 KB/s  ]   Leechers:  1  [  0 KB/s  ]   Show peers in full details
 
 
 
 
Author Message

BiOS ®

Longevity: 5 years 4 months

Posts: 2279

Location: East Siberia


Post 09-Sep-2019 01:28

[Quote]

Звёздная принцесса и силы зла / Стар против Сил Зла / Star vs. the Forces of Evil
«In 2015. Star Butterfly will come to Earth and change the lives of the Diaz family forever!»
- Производство: США / Daron Nefcy Productions, Disney XD, Walt Disney Television Animation
Жанр: мультфильм, фантастика, фэнтези, комедия, приключения, семейный
Режиссер: Аарон Хэммерсли, Пьеро Пилузо, Дэвид Вассон
Актеры: Иден Шер - Star Butterfly, Адам МакАртур - Marco Diaz, Грэй Гриффин - Queen Butterfly, Алан Тьюдик - Ludo и др.
Описание:
История о девочке, живущей в ином измерении, по имени Стар Баттерфляй, которая получила в 14 лет волшебную палочку. Но после того, как Стар чуть ли не превратила свой родной город в прах, родители отправили её в другое измерение, которое называется Земля, чтобы жить с семьёй Диаз, которая состоит из добродушных родителей и подростка по имени Марко. Все одноклассники и друзья считают его тихоней, который остерегается даже обыкновенного падения. Марко считает это неправдой, и из-за такой репутации подросток жаждет приключений и опасностей.

Продолжительность: ~ 00:22:00 серия
Качество видео: WEB-DL
Перевод: Дублированный, профессиональный - Кириллица
Видео: AVC/H.264, 1920x1080 (16:9), ~5 141 kbps
Аудио Rus: AC3, 48,0 kHz, 2 ch, 192 kbps - дублированный
Аудио Eng: AAC, 48,0 kHz, 2 ch, 153 kbps - оригинал

MediaInfo

General
Format : Matroska
Format version : Version 4 / Version 2
File size : 880 MiB
Duration : 22 min 24 s
Overall bit rate : 5 488 kb/s
Encoded date : UTC 2018-02-13 17:29:52
Writing application : mkvmerge v20.0.0 ('I Am The Sun') 64-bit
Writing library : libebml v1.3.5 + libmatroska v1.4.8
Video
ID : 1
Format : AVC
Format/Info : Advanced Video Codec
Format profile : [email protected]
Format settings : CABAC / 4 Ref Frames
Format settings, CABAC : Yes
Format settings, ReFrames : 4 frames
Codec ID : V_MPEG4/ISO/AVC
Duration : 22 min 24 s
Bit rate : 5 141 kb/s
Width : 1 920 pixels
Height : 1 080 pixels
Display aspect ratio : 16:9
Frame rate mode : Constant
Frame rate : 23.976 (23976/1000) FPS
Color space : YUV
Chroma subsampling : 4:2:0
Bit depth : 8 bits
Scan type : Progressive
Bits/(Pixel*Frame) : 0.103
Stream size : 824 MiB (94%)
Language : English
Default : Yes
Forced : No
Color range : Limited
Color primaries : BT.709
Transfer characteristics : BT.709
Matrix coefficients : BT.709
Audio #1
ID : 2
Format : AC-3
Format/Info : Audio Coding 3
Codec ID : A_AC3
Duration : 22 min 24 s
Bit rate mode : Constant
Bit rate : 192 kb/s
Channel(s) : 2 channels
Channel positions : Front: L R
Sampling rate : 48.0 kHz
Frame rate : 31.250 FPS (1536 SPF)
Bit depth : 16 bits
Compression mode : Lossy
Stream size : 30.8 MiB (3%)
Language : Russian
Service kind : Complete Main
Default : Yes
Forced : No
Audio #2
ID : 3
Format : AAC
Format/Info : Advanced Audio Codec
Format profile : LC
Codec ID : A_AAC-2
Duration : 22 min 24 s
Bit rate : 153 kb/s
Channel(s) : 2 channels
Channel positions : Front: L R
Sampling rate : 48.0 kHz
Frame rate : 46.875 FPS (1024 SPF)
Compression mode : Lossy
Stream size : 24.4 MiB (3%)
Language : English
Default : No
Forced : No

Список серий

01. Return to Mewni / Moon the Undaunted - Возвращение на Мьюни / Неустрашимая Луна
02. Book Be Gone / Marco and the King - Марко и Король
03. Puddle Defender / King Ludo - Грязь Защита / Король Людо
04. Toffee - Тоффи
05. Scent of a Hoodie / Rest in Pudding - Запах толстовки / Отдых в пудинге
06. Club Snubbed / Stranger Danger - Клуб Оскорблённых / Незнакомая опасность
07. Demoncism / Sophomore Slump - Демонтизм / Второсортный Обвал
08. Lint Catcher / Trial by Squire - Ловец Снов / Испытание сквайера
09. Princess Turdina / Starfari - Принцесса Турдина / Старфари
10. Sweet Dreams / Lava Lake Beach - Сладкий сон / Пляж Лавового Озера
11. Death Peck / Ponymonium - Смертельный клевок / Понимоний
12. Night Life / Deep Dive - Ночная жизнь / Глубокое погружение
13. Monster Bash - Удар Монстра
14. Stump Day / Holiday Spellcial - День пня / Праздничный выпуск
15. The Bogbeast of Boggabah / Total Eclipsa the Moon - Богиня Боггабы / Полное затмение Луны
16. Butterfly Trap / Ludo, Where Art Thou? - Ловушка Баттерфляй / Людо, где ты?
17. Is Another Mystery / Marco Jr. - Еще одна тайна / Марко-младший
18. Skooled! / Booth Buddies - Обученный! / Будка друзей
19. Bam Ui Pati! / Tough Love - Вечеринка ночи / Жесткая любовь
20. Divide - Разделить
21. Conquer - Покорение
-Скриншоты:


Смотреть онлайн


[trackeroc.org].29069.torrent 
Torrent: Registered   [ 2019-09-09 01:28 ]

Скачать торрент

93 KB

Status: checked
Completed: 20 times
Size: 17.99 GB
 

Angel (09-сен-19), Admin (09-сен-19)
Similar torrent
Forum Topic Author Size
Зарубежные Мультсериалы Звёздная принцесса и силы зла / Стар против Сил Зла / Star vs. the Forces of Evil (2016) WEB-DL (сезон 2, серии 1-22 из 22) Кириллица BiOS 18.39 GB
Зарубежные Мультсериалы Звёздная принцесса и силы зла / Стар против Сил Зла / Star vs. the Forces of Evil (2015) WEB-DL (сезон 1, серии 1-13 из 13) Кириллица BiOS 11.37 GB
Зарубежные Мультсериалы Звёздная принцесса и силы зла / Стар против Сил Зла / Star vs. the Forces of Evil (2017) WEB-DL (сезон 4, серии 1-21 из 21) Кириллица BiOS 8.07 GB
Квесты, я ищу, Поиск предметов, Hidden Object Princess Isabella 3: The Rise of an Heir. Collector's Edition / Принцесса Изабелла 3. Путь наследницы. [P] [RUS / ENG] (2013) HOPE 504 MB

_________________
[Profile] [PM]
Display posts from previous:    
Reply to topic

The time now is: Today 14:14

All times are GMT + 4 Hours



You cannot post new topics in this forum
You cannot reply to topics in this forum
You cannot edit your posts in this forum
You cannot delete your posts in this forum
You cannot vote in polls in this forum
You cannot attach files in this forum
You can download files in this forum