22 мили / Mile 22 (2018) TS [H.264/720р-LQ] скачать торрент

Reply to topic

DL-List and Torrent activity [Update пиров]
Size:  1.47 GB   |    Registered:  1 year 6 months   |    Completed:  1 time

Seeder not seen: 1 year 5 months

Leechers:  2  [  0 KB/s  ]   Show peers in full details
 
 
 
 
 
Author Message

Captain ®

Longevity: 6 years 5 months

Posts: 2551

Location: Earth


Post 23-Aug-2018 12:00

[Quote]

22 мили / Mile 22«Призраки не играют по правилам»- Производство: США, STX Entertainment,Aperture Media Partners,Closest to the Hole Productions
Жанр: Боевик, Приключения, Криминал, Триллер
Режиссер: Питер Берг
Продюсер: Питер Берг, Стивен Левинсон, Марк Уолберг, ...
Актеры: Марк Уолберг, Лорен Кохэн, Ико Уайс, Джон Малкович, Ронда Раузи, Карло Альбан, Наталья Губская, Сиэль, Сэм Медина, Кит А. Болден ...
Описание:
Призраки — элитный отряд сверхсекретной разведки: официально они не существуют, но на самом деле — реальны. Они решают задачи, когда старые методы уже не работают, и всегда добиваются поставленной цели. Суперагенту отряда при поддержке ЦРУ предстоит непростая миссия: тайно вывести из Индонезии полицейского, владеющего доказательствами коррупции в высших политических кругах. До спасительного самолета им предстоит преодолеть 22 смертельно опасные мили.

Возраст: 18+ (зрителям, достигшим 18 лет. запрещено для детей)
Рейтинг MPAA: R (лицам до 17 лет обязательно присутствие взрослого)
Премьера (мир): 16 августа 2018, ...
Премьера (РФ): 23 августа 2018, «MEGOGO Distribution»
Цифровой релиз: 30 октября 2018, «Megogo Distribution»

Релиз от: NNMClub
Продолжительность: 01:34:25
Качество видео: WEB-DLRip
Перевод: Дублированный (iTunes)
Субтитры: Отсутствуют
Видео: XviD, 720x296 (2.40:1), 23.976 fps, ~1 834 Kbps
Аудио: AC-3, 6 ch, 384 Kbps (Русский-DUB iTunes)

Mediainfo:

General
Format : AVI
Format/Info : Audio Video Interleave
File size : 1.47 GiB
Duration : 1 h 34 min
Overall bit rate : 2 228 kb/s
Writing application : Lavf58.12.100
Writing library : VirtualDub build 35491/release
Video
ID : 0
Format : MPEG-4 Visual
Format profile : Advanced [email protected]
Format settings : BVOP2
Format settings, BVOP : 2
Format settings, QPel : No
Format settings, GMC : No warppoints
Format settings, Matrix : Default (MPEG)
Codec ID : XVID
Codec ID/Hint : XviD
Duration : 1 h 34 min
Bit rate : 1 834 kb/s
Width : 720 pixels
Height : 296 pixels
Display aspect ratio : 2.40:1
Frame rate : 23.976 (24000/1001) FPS
Color space : YUV
Chroma subsampling : 4:2:0
Bit depth : 8 bits
Scan type : Progressive
Compression mode : Lossy
Bits/(Pixel*Frame) : 0.359
Stream size : 1.21 GiB (82%)
Writing library : XviD 67
Audio
ID : 1
Format : AC-3
Format/Info : Audio Coding 3
Commercial name : Dolby Digital
Codec ID : 2000
Duration : 1 h 34 min
Bit rate mode : Constant
Bit rate : 384 kb/s
Channel(s) : 6 channels
Channel layout : L R C LFE Ls Rs
Sampling rate : 48.0 kHz
Frame rate : 31.250 FPS (1536 SPF)
Bit depth : 16 bits
Compression mode : Lossy
Stream size : 259 MiB (17%)
Alignment : Aligned on interleaves
Interleave, duration : 42 ms (1.00 video frame)
Interleave, preload duratio : 512 ms
Service kind : Complete Main
-Скриншоты:


Смотреть онлайн

[trackeroc.org].26019.torrent  Магнет ссылка
Torrent: Registered   [ 2019-03-09 12:15 ]

Скачать торрент

15 KB

Status: checked
Completed: 141 times
Size: 1.47 GB
 

Admin (23-авг-18)


_________________
[Profile] [PM]
Display posts from previous:    
Reply to topic

The time now is: Today 14:34

All times are GMT + 4 Hours



You cannot post new topics in this forum
You cannot reply to topics in this forum
You cannot edit your posts in this forum
You cannot delete your posts in this forum
You cannot vote in polls in this forum
You cannot attach files in this forum
You can download files in this forum