Аль-капотня (2019-2020) WEBRip [H.264/1080p-LQ] (сезон 1, серии 1-13 из 13) скачать торрент

Reply to topic


DL-List and Torrent activity [Update пиров]
Size:  10.68 GB   |    Registered:  13 days   |    Completed:  0 times
Seeders:  7  [  328 KB/s  ]   Leechers:  2  [  189 KB/s  ]   Show peers in full details
 
 
 
 
Author Message

Pro100Moder ®

Longevity: 7 years

Posts: 2545

Location: Earth


Post 24-Mar-2021 02:04

[Quote]

Аль-капотня- Производство: Россия | "LEGIO FELIX"
Жанр: Комедия, драма, криминал
Режиссер: Илья Куликов, Виктор Конисевич
Актеры: Максим Костромыкин, Денис Васильев, Сергей Шаталов, Маруся Климова, Мария Староторжская, Ульяна Чжан, Андрей Грызлов, Владислав Павлов, Александр Азыранкулов, Тимур Абитов
Описание:
Мелкие хулиганства, драки, кражи и их последствия — всё это рутина для сотрудников отдела по делам несовершеннолетних. Но есть среди них тот, кому не все равно на хаос, царящий на районе. Хороший полицейский Паша изо всех сил старается спасти запутавшихся подростков от тюрьмы. Но очень сложно помочь тем, кто сбился с пути, когда тебе противостоит местный криминальный авторитет.

Возраст: 16+ (зрителям, достигшим 16 лет)
Дата российской премьеры: 15 марта 2021
Релиз от: Getty
Продолжительность: ~00:25:00 серия
Качество видео: WEBRip
Видео: AVC/H.264, 1920x800, ~4433 Kbps
Аудио: AC3, 2 ch, 192 Kbps (Без цензуры)

MediaInfo:

General
Unique ID : 202558516049376075061349906237914570102 (0x986359E54B83306BB6F196E7934B5D76)
Complete name : Al.kapotnya.e01.2019.WEB-DL.(1080p).Getty.mkv
Format : Matroska
Format version : Version 4
File size : 761 MiB
Duration : 22 min 59 s
Overall bit rate mode : Variable
Overall bit rate : 4 627 kb/s
Movie name : Al.kapotnya.e01.2019.WEB-DL.(1080p).Getty
Encoded date : UTC 2021-03-15 19:21:36
Writing application : mkvmerge v7.8.0 ('River Man') 32bit built on Mar 27 2015 16:18:02
Writing library : libebml v1.3.1 + libmatroska v1.4.2
Video
ID : 1
Format : AVC
Format/Info : Advanced Video Codec
Format profile : [email protected]
Format settings : CABAC / 1 Ref Frames
Format settings, CABAC : Yes
Format settings, ReFrames : 1 frame
Format settings, GOP : M=1, N=50
Codec ID : V_MPEG4/ISO/AVC
Duration : 22 min 58 s
Bit rate mode : Variable
Bit rate : 4 433 kb/s
Maximum bit rate : 4 500 kb/s
Width : 1 920 pixels
Height : 800 pixels
Display aspect ratio : 2.40:1
Frame rate mode : Constant
Frame rate : 25.000 FPS
Color space : YUV
Chroma subsampling : 4:2:0
Bit depth : 8 bits
Scan type : Progressive
Bits/(Pixel*Frame) : 0.115
Stream size : 729 MiB (96%)
Default : Yes
Forced : No
Audio
ID : 2
Format : AC-3
Format/Info : Audio Coding 3
Commercial name : Dolby Digital
Codec ID : A_AC3
Duration : 22 min 59 s
Bit rate mode : Constant
Bit rate : 192 kb/s
Channel(s) : 2 channels
Channel layout : L R
Sampling rate : 48.0 kHz
Frame rate : 31.250 FPS (1536 SPF)
Bit depth : 16 bits
Compression mode : Lossy
Stream size : 31.6 MiB (4%)
Service kind : Complete Main
Default : Yes
Forced : No
-Скриншоты:


Смотреть онлайн

[trackeroc.org].32711.torrent  Магнет ссылка
Torrent: Registered   [ 2021-04-07 15:00 ]

Скачать торрент

55 KB

Status: checked
Completed: 165 times
Size: 10.68 GB
 

trackeroc.org (24-мар-21)

Similar torrent
Forum Topic Author Size
Visual Novel, Визуальные новеллы Fashion Business Episode 1-3 (2020) (ENG+RUS) www.trackeroc.ru 31.47 GB
Arcade, Аркады, Платформеры Neon Abyss [RUS + ENG + 7] (2020) (1.3.4.1rc4) GOG www.trackeroc.ru 411 MB
RPG, ролевые игры Astrox Imperium v0.0116 [Early Access] (2019) (ENG) GOG www.trackeroc.ru 776 MB
Arcade, Аркады, Платформеры Bite the Bullet (2020) (RUS|ENG|MULTi10) v1.5.0-GOG trackeroc.org 489 MB
Strategy, Стратегии Cartel Tycoon [RUS + ENG + 5] (2020) (0.9.0.1350) [В разработке] GOG www.trackeroc.ru 3.8 GB

_________________
[Profile] [PM]
Display posts from previous:    
Reply to topic

The time now is: Today 16:49

All times are GMT + 4 Hours



You cannot post new topics in this forum
You cannot reply to topics in this forum
You cannot edit your posts in this forum
You cannot delete your posts in this forum
You cannot vote in polls in this forum
You cannot attach files in this forum
You can download files in this forum