Аты-баты, шли солдаты... (1976) HDTVRip [H.264/720p] скачать торрент

Reply to topic

DL-List and Torrent activity [Update пиров]
Size:  3.44 GB   |    Registered:  9 months 24 days   |    Completed:  0 times

Seeder not seen: 1 year

 
 
 
 
 
Author Message

www.trackeroc.ru ®

Longevity: 6 years 10 months

Posts: 9995

Location: Скачать торрент


Post 06-Mar-2015 18:11

[Quote]

Аты-баты, шли солдаты... - Производство: СССР / Киностудия им. А. Довженко
Жанр: Драма, военный
Режиссер: Леонид Быков
Актеры: Леонид Быков, Владимир Конкин, Елена Шанина, Леонид Бакштаев, Евгения Уралова, Николай Гринько, Иван Гаврилюк, Николай Сектименко, Отабек Ганиев, Наталья Наум
Описание:
Они погибли 18 марта 1944 года, их было всего восемнадцать человек – комсомольский взвод, остановивший колонну немецких танков. Трагическое и комедийное, героическое и лирическое сплелись на экране в необычную ткань повествования об отцах, навсегда оставшихся молодыми, и о детях, пришедших туда, где ровно тридцать лет назад приняли свой последний смертный бой самые родные для них люди...

Возраст: 0+ (для любой зрительской аудитории)
Продолжительность: 01:22:01
Качество видео: HDTVRip (720p)
Перевод: Не требуется (русский)
Субтитры: Русские, английские, французские, немецкие
Видео: AVC/H.264, 1280x692, ~5555 kbps
Аудио: AC3, 6 ch, 448 kbps

Mediainfo:

Общее
Полное имя : Аты-баты, шли солдаты\Aty.baty.shli.soldaty.1976.HDTVRip.720р.mkv
Формат : Matroska
Версия формата : Version 4
Размер файла : 3,44 Гбайт
Продолжительность : 1 ч. 22 м.
Общий поток : 6005 Кбит/сек
Дата кодирования : UTC 2020-05-08 08:03:58
Программа кодирования : mkvmerge v6.9.1 ('Blue Panther') 32bit built on Apr 18 2014 18:15:44
Библиотека кодирования : libebml v1.3.0 + libmatroska v1.4.1
Видео
Идентификатор : 1
Формат : AVC
Формат/Информация : Advanced Video Codec
Профиль формата : [email protected]
Настройки формата : CABAC / 9 Ref Frames
Параметр CABAC формата : Да
Параметр RefFrames формата : 9 кадров
Идентификатор кодека : V_MPEG4/ISO/AVC
Продолжительность : 1 ч. 22 м.
Битрейт : 5555 Кбит/сек
Ширина : 1280 пикселей
Высота : 692 пикселя
Соотношение сторон : 1,85:1
Режим частоты кадров : Постоянный
Частота кадров : 25,000 кадров/сек
Цветовое пространство : YUV
Субдискретизация насыщенности : 4:2:0
Битовая глубина : 8 бит
Тип развёртки : Прогрессивная
Бит/(Пиксели*Кадры) : 0.251
Размер потока : 3,12 Гбайт (91%)
Библиотека кодирования : x264 core 148 r2744kMod b97ae06
Настройки программы : cabac=1 / ref=9 / deblock=1:-2:-2 / analyse=0x3:0x113 / me=umh / subme=10 / psy=1 / fade_compensate=0.00 / psy_rd=1.05:0.10 / mixed_ref=1 / me_range=32 / chroma_me=1 / trellis=2 / 8x8dct=1 / cqm=0 / deadzone=21,11 / fast_pskip=0 / chroma_qp_offset=-3 / threads=12 / lookahead_threads=2 / sliced_threads=0 / nr=0 / decimate=0 / interlaced=0 / bluray_compat=0 / constrained_intra=0 / bframes=9 / b_pyramid=2 / b_adapt=2 / b_bias=0 / direct=3 / weightb=1 / open_gop=0 / weightp=2 / keyint=250 / keyint_min=25 / scenecut=40 / intra_refresh=0 / rc=2pass / mbtree=0 / bitrate=5555 / ratetol=1.0 / qcomp=0.63 / qpmin=0 / qpmax=39 / qpstep=4 / cplxblur=20.0 / qblur=0.5 / ip_ratio=1.25 / pb_ratio=1.30 / aq=2:0.80
Язык : English
Default : Да
Forced : Нет
Цветовой диапазон : Limited
Основные цвета : BT.709
Характеристики трансфера : BT.709
Коэффициенты матрицы : BT.709
Аудио
Идентификатор : 2
Формат : AC-3
Формат/Информация : Audio Coding 3
Коммерческое название : Dolby Digital
Идентификатор кодека : A_AC3
Продолжительность : 1 ч. 22 м.
Вид битрейта : Постоянный
Битрейт : 448 Кбит/сек
Каналы : 6 каналов
ChannelLayout : L R C LFE Ls Rs
Частота : 48,0 КГц
Частота кадров : 31,250 кадров/сек (1536 SPF)
Метод сжатия : С потерями
Размер потока : 263 Мбайт (7%)
Язык : Russian
ServiceKind/String : Complete Main
Default : Да
Forced : Нет
Текст #1
Идентификатор : 3
Формат : UTF-8
Идентификатор кодека : S_TEXT/UTF8
Идентификатор кодека/Информация : UTF-8 Plain Text
Заголовок : Twister
Язык : Russian
Default : Нет
Forced : Нет
Текст #2
Идентификатор : 4
Формат : UTF-8
Идентификатор кодека : S_TEXT/UTF8
Идентификатор кодека/Информация : UTF-8 Plain Text
Заголовок : RUSCICO
Язык : English
Default : Нет
Forced : Нет
Текст #3
Идентификатор : 5
Формат : UTF-8
Идентификатор кодека : S_TEXT/UTF8
Идентификатор кодека/Информация : UTF-8 Plain Text
Заголовок : RUSCICO
Язык : French
Default : Нет
Forced : Нет
Текст #4
Идентификатор : 6
Формат : UTF-8
Идентификатор кодека : S_TEXT/UTF8
Идентификатор кодека/Информация : UTF-8 Plain Text
Заголовок : RUSCICO
Язык : German
Default : Нет
Forced : Нет
Меню
00:00:00.000 : en:00:00
00:07:56.160 : en:00:07:56
00:10:57.520 : en:00:10:57
00:14:15.640 : en:00:14:15
00:19:39.480 : en:00:19:39
00:23:42.720 : en:00:23:42
00:25:35.400 : en:00:25:35
00:30:53.040 : en:00:30:53
00:37:46.320 : en:00:37:46
00:39:58.200 : en:00:39:58
00:42:24.120 : en:00:42:24
00:46:09.240 : en:00:46:09
00:53:18.120 : en:00:53:18
00:58:21.120 : en:00:58:21
01:01:11.640 : en:01:01:11
01:05:32.160 : en:01:05:32
01:12:06.960 : en:01:12:06
01:18:56.520 : en:01:18:56
-Скриншоты:


Смотреть онлайн

[trackeroc.org].5041.torrent  Магнет ссылка
Torrent: Registered   [ 2020-05-08 16:34 ]

Скачать торрент

18 KB

Status: checked
Completed: 205 times
Size: 3.44 GB
 

Moder (06-мар-15)

Similar torrent
Forum Topic Author Size
Боевики Последнее испытание Шаолиня / Деревянные солдаты Шаолиня / Shào Lín Mù Rén Xiàng / Shaolin Wooden Men / 少林木人巷 (1976) VHSRip [VO] Moder 837 MB
Отечественные Урфин Джюс и его деревянные солдаты (2017) WEB-DLRip www.trackeroc.ru 1.46 GB


Last edited by www.trackeroc.ru on 2015-08-22 11:03; edited 15 times in total
[Profile] [PM]
Display posts from previous:    
Reply to topic

The time now is: Today 23:41

All times are GMT + 4 Hours



You cannot post new topics in this forum
You cannot reply to topics in this forum
You cannot edit your posts in this forum
You cannot delete your posts in this forum
You cannot vote in polls in this forum
You cannot attach files in this forum
You can download files in this forum