Аватар короля / Королевский Аватар / The King's Avatar / Quan zhi gao shou (2019) WEBRip [H.264/1080p-LQ] (сезон 1, серии 1-40 из 40) AniStar, Voice Project Studio скачать торрент

Reply to topic

DL-List and Torrent activity [Update пиров]
Size:  46.79 GB   |    Registered:  21 day   |    Completed:  0 times

Seeder not seen: Never

 
 
 
 
 
Author Message

Captain ®

Longevity: 6 years 6 months

Posts: 2562

Location: Earth


Post 28-Sep-2020 21:37

[Quote]

Аватар короля / Королевский Аватар / The King's Avatar / Quan zhi gao shou - Производство: Китай / Tencent Penguin Pictures
Жанр: боевик, приключения, фантастика
Режиссер: Юэ Шии
Актеры: Ян Ян, Лай Юй Мэн, Гао Хань Юй, Сун Цзу Эр, Ян Тин Дун, Цзян Шу Ин, Ли Му Чэнь, Лян И Му, Цзян Лун, Лай И и др.
Описание:
В онлайн-игре "Слава" Е Сю известен как эксперт экстра-класса и топовый игрок, но из-за ряда обстоятельств его выгоняют из команды профи. После провала Е Сю устраивается в одном интернет-кафе менеджером. А когда "Слава" запускает десятый сервер, он снова погружается в игровые пучины, вооружённый десятилетним опытом, воспоминаниями о былом и недоделанным самодельным оружием. Его восхождение к вершине начинается.

Дата мировой премьеры: 24 июля 2019
Релиз от: xetrin
Продолжительность: ~00:45:00 серия
Качество видео: WEBRip
Перевод: Двуголосый любительский (AniStar, Voice Project Studio)
Субтитры: русские, английские
Видео: AVC/H.264, 1920x1080 (16:9), ~3751 kbps
Аудио 1: AC3, 2 ch, 128 Kbps - русский (Voice Project Studio) с 1 по 17 серию.
Аудио 2: AC3, 2 ch, 128 Kbps - русский (AniStar)
Аудио 3: EAC3, 2 ch, 128 Kbps - китайский

MediaInfo:

General
Unique ID : 220885136131449042855594950493379580033 (0xA62CEE07042EECCA79CC4082FF115081)
Complete name : The_King's_Avatar_S01E01_[WEBRip_1080p_h264_AC3].mkv
Format : Matroska
Format version : Version 4
File size : 1.30 GiB
Duration : 44 min 58 s
Overall bit rate : 4 139 kb/s
Encoded date : UTC 2020-06-21 12:15:05
Writing application : mkvmerge v47.0.0 ('Black Flag') 64-bit
Writing library : libebml v1.3.10 + libmatroska v1.5.2
Attachments : Franklin Gothic Medium Regular_0.ttf / Harry Potter (Russian Version of Gfdtk)_0.ttf / Segoe Print_0.ttf / Reef_0.ttf / AC-Display_0.ttf / Franklin Gothic Medium Regular_0.ttf / Harry Potter (Russian Version of Gfdtk)_0.ttf / Segoe Print_0.ttf / Reef_0.ttf / AC-Display_0.ttf
Video
ID : 1
Format : AVC
Format/Info : Advanced Video Codec
Format profile : [email protected]
Format settings : CABAC / 3 Ref Frames
Format settings, CABAC : Yes
Format settings, ReFrames : 3 frames
Codec ID : V_MPEG4/ISO/AVC
Duration : 44 min 57 s
Bit rate : 3 751 kb/s
Width : 1 920 pixels
Height : 1 080 pixels
Display aspect ratio : 16:9
Frame rate mode : Constant
Frame rate : 25.000 FPS
Color space : YUV
Chroma subsampling : 4:2:0
Bit depth : 8 bits
Scan type : Progressive
Bits/(Pixel*Frame) : 0.072
Stream size : 1.18 GiB (91%)
Title : WEBRip by xetrin
Language : Chinese
Default : Yes
Forced : No
Audio #1
ID : 2
Format : AC-3
Format/Info : Audio Coding 3
Commercial name : Dolby Digital
Codec ID : A_AC3
Duration : 44 min 58 s
Bit rate mode : Constant
Bit rate : 128 kb/s
Channel(s) : 2 channels
Channel layout : L R
Sampling rate : 48.0 kHz
Frame rate : 31.250 FPS (1536 SPF)
Bit depth : 16 bits
Compression mode : Lossy
Stream size : 41.2 MiB (3%)
Title : [Voice Project Studio] Ольга Леонцева и Филипп Илькив
Language : Russian
Service kind : Complete Main
Default : Yes
Forced : No
Audio #2
ID : 3
Format : AC-3
Format/Info : Audio Coding 3
Commercial name : Dolby Digital
Codec ID : A_AC3
Duration : 44 min 57 s
Bit rate mode : Constant
Bit rate : 128 kb/s
Channel(s) : 2 channels
Channel layout : L R
Sampling rate : 48.0 kHz
Frame rate : 31.250 FPS (1536 SPF)
Bit depth : 16 bits
Compression mode : Lossy
Stream size : 41.2 MiB (3%)
Title : [AniStar] Xelenum и Ruri
Language : Russian
Service kind : Complete Main
Default : No
Forced : No
Audio #3
ID : 4
Format : E-AC-3
Format/Info : Enhanced AC-3
Commercial name : Dolby Digital Plus
Codec ID : A_EAC3
Duration : 44 min 57 s
Bit rate mode : Constant
Bit rate : 128 kb/s
Channel(s) : 2 channels
Channel layout : L R
Sampling rate : 48.0 kHz
Frame rate : 31.250 FPS (1536 SPF)
Compression mode : Lossy
Stream size : 41.2 MiB (3%)
Title : Chinese
Language : Chinese
Service kind : Complete Main
Default : No
Forced : No
Text #1
ID : 5
Format : ASS
Codec ID : S_TEXT/ASS
Codec ID/Info : Advanced Sub Station Alpha
Duration : 36 min 41 s
Bit rate : 0 b/s
Count of elements : 5
Compression mode : Lossless
Stream size : 270 Bytes (0%)
Title : [FSG] Black Pearl (Drakylita) [Надписи]
Language : Russian
Default : Yes
Forced : No
Text #2
ID : 6
Format : ASS
Codec ID : S_TEXT/ASS
Codec ID/Info : Advanced Sub Station Alpha
Duration : 44 min 57 s
Bit rate : 127 b/s
Count of elements : 608
Compression mode : Lossless
Stream size : 41.8 KiB (0%)
Title : [FSG] Black Pearl (Drakylita) [Полные]
Language : Russian
Default : No
Forced : No
Text #3
ID : 7
Format : ASS
Codec ID : S_TEXT/ASS
Codec ID/Info : Advanced Sub Station Alpha
Duration : 40 min 57 s
Bit rate : 168 b/s
Count of elements : 734
Compression mode : Lossless
Stream size : 50.7 KiB (0%)
Title : [ФСГ ТаЛи] Лилия Миронова и Noel Korderry [Полные]
Language : Russian
Default : No
Forced : No
Text #4
ID : 8
Format : ASS
Codec ID : S_TEXT/ASS
Codec ID/Info : Advanced Sub Station Alpha
Duration : 43 min 35 s
Bit rate : 104 b/s
Count of elements : 591
Compression mode : Lossless
Stream size : 33.3 KiB (0%)
Title : English
Language : English
Default : No
Forced : No

Дополнительная информация:

Автор перевода субтитров:
1. [FSG] Black Pearl (Drakylita) [Полные + Надписи] с 01 по 17 серию
2. [ФСГ ТаЛи] Лилия Миронова, Noel Korderry и Li Dinoel [Полные]
P. S. Уважаемые FilMix и ему подобные сервисы! Стоит обратить внимание, что данное качество (1080p) релиза предоставлено абсолютно бесплатно и для ознакомления. Не стоит продавать данное качество видео с этой раздачи на своих сервисах.
-Скриншоты:


Смотреть онлайн

[trackeroc.org].31940.torrent  Магнет ссылка
Torrent: Registered   [ 2020-09-28 21:37 ]

Скачать торрент

121 KB

Status: checked
Completed: 34 times
Size: 46.79 GB
 

trackeroc.org (29-сен-20)

Similar torrent
Forum Topic Author Size
Зарубежные Мультсериалы Аватар: Легенда об Аанге / Avatar: The Last Airbender (2005-2008) WEBDL-Rip (Сезон 1-3, Серии 1-61 из 61) Captain 29.33 GB
Фантастика ,Фэнтези Аватар / Avatar (2009) BDRip [H.264|1280x720] [Extended Cut] [VO] by VHSник Captain 6.44 GB
Фантастика ,Фэнтези Меч короля Артура / King Arthur: Legend of the Sword (2017) BDRip Captain 1.46 GB
Комедии Голограмма для короля / A Hologram for the King (2016) WEB-DLRip Admin 1.37 GB

_________________
[Profile] [PM]
Display posts from previous:    
Reply to topic

The time now is: Today 21:02

All times are GMT + 4 Hours



You cannot post new topics in this forum
You cannot reply to topics in this forum
You cannot edit your posts in this forum
You cannot delete your posts in this forum
You cannot vote in polls in this forum
You cannot attach files in this forum
You can download files in this forum