Барашек Шон: Фермагеддон / A Shaun the Sheep Movie: Farmageddon (2019) BDRip [H.264/1080p] скачать торрент

Reply to topic

DL-List and Torrent activity [Update пиров]
Size:  7.14 GB   |    Registered:  6 days   |    Completed:  0 times

Seeder not seen: Never

 
 
 
 
 
Author Message

BiOS ®

Longevity: 5 years 10 months

Posts: 2419

Location: Earth


Post 12-Feb-2020 04:25

[Quote]

Барашек Шон: Фермагеддон / A Shaun the Sheep Movie: Farmageddon «Большой шаг для всего овечества»- Производство: Великобритания, Франция, США / Aardman Animations, Amazon Prime Video, Anton, Studio Canal
Жанр: мультфильм, фантастика, фэнтези, комедия, приключения, семейный
Описание:
Странные огни над городом предвещают прибытие таинственного гостя из далекой галактики. Очаровательная и озорная Лу-Ла терпит крушение неподалеку от фермы Шона. Инопланетные способности и проказы неугомонной Лу-Лы очаровывают отару, и Шон решает помочь внеземному другу найти потерянный корабль, но он не знает, что зловещее агентство по охоте на инопланетян уже идет по их следу. Смогут ли Шон и его друзья предотвратить Фермагеддон, пока не стало слишком поздно?

Возраст: 6+ (зрителям, достигшим 6 лет)
Рейтинг MPAA: G (нет возрастных ограничений)
Дата мировой премьеры: 26 сентября 2019
Дата российской премьеры: 23 января 2020, «Вольга»
Релиз от: Astral Projection
Продолжительность: 01:26:47
Качество видео: BDRip
Перевод: Не требуется (нет озвученных диалогов)
Субтитры: Английские
Видео: AVC/H.264, 1920x804, ~11.1 Mbps
Аудио: AC3, 6 ch, 640 Kbps

MediaInfo:

Format                                   : Matroska
Format version : Version 4
File size : 7.14 GiB
Duration : 1 h 26 min
Overall bit rate : 11.8 Mb/s
Encoded date : UTC 2020-02-11 17:48:25
Writing application : mkvmerge v43.0.0 ('The Quartermaster') 64-bit
Writing library : libebml v1.3.10 + libmatroska v1.5.2
Video
ID : 1
Format : AVC
Format/Info : Advanced Video Codec
Format profile : [email protected]
Format settings : CABAC / 5 Ref Frames
Format settings, CABAC : Yes
Format settings, Reference frames : 5 frames
Codec ID : V_MPEG4/ISO/AVC
Duration : 1 h 26 min
Bit rate : 11.1 Mb/s
Width : 1 920 pixels
Height : 804 pixels
Display aspect ratio : 2.40:1
Frame rate mode : Constant
Frame rate : 24.000 FPS
Color space : YUV
Chroma subsampling : 4:2:0
Bit depth : 8 bits
Scan type : Progressive
Bits/(Pixel*Frame) : 0.301
Stream size : 6.76 GiB (95%)
Writing library : x264 core 159 r2991 1771b55
Encoding settings : cabac=1 / ref=5 / deblock=1:-3:-3 / analyse=0x3:0x133 / me=umh / subme=10 / psy=1 / psy_rd=0.95:0.00 / mixed_ref=1 / me_range=48 / chroma_me=1 / trellis=2 / 8x8dct=1 / cqm=0 / deadzone=21,11 / fast_pskip=0 / chroma_qp_offset=-2 / threads=25 / lookahead_threads=6 / sliced_threads=0 / nr=0 / decimate=0 / interlaced=0 / bluray_compat=0 / constrained_intra=0 / bframes=10 / b_pyramid=2 / b_adapt=2 / b_bias=0 / direct=3 / weightb=1 / open_gop=0 / weightp=2 / keyint=240 / keyint_min=24 / scenecut=40 / intra_refresh=0 / rc=crf / mbtree=0 / crf=15.5 / qcomp=0.60 / qpmin=0 / qpmax=69 / qpstep=4 / ip_ratio=1.30 / pb_ratio=1.20 / aq=3:0.80
Default : Yes
Forced : No
Audio
ID : 2
Format : AC-3
Format/Info : Audio Coding 3
Commercial name : Dolby Digital
Codec ID : A_AC3
Duration : 1 h 26 min
Bit rate mode : Constant
Bit rate : 640 kb/s
Channel(s) : 6 channels
Channel layout : L R C LFE Ls Rs
Sampling rate : 48.0 kHz
Frame rate : 31.250 FPS (1536 SPF)
Compression mode : Lossy
Stream size : 397 MiB (5%)
Title : AC-3 5.1
Language : English
Service kind : Complete Main
Default : No
Forced : No
Text
ID : 3
Format : UTF-8
Codec ID : S_TEXT/UTF8
Codec ID/Info : UTF-8 Plain Text
Duration : 1 h 26 min
Bit rate : 2 b/s
Count of elements : 262
Stream size : 1.34 KiB (0%)
Language : English
Default : No
Forced : No
-Скриншоты:


Смотреть онлайн


[trackeroc.org].29933.torrent 
Torrent: Registered   [ 2020-02-12 04:25 ]

Скачать торрент

144 KB

Status: checked
Completed: 15 times
Size: 7.14 GB
 

Admin (12-фев-20)

_________________
[Profile] [PM]
Display posts from previous:    
Reply to topic

The time now is: Today 11:20

All times are GMT + 4 Hours



You cannot post new topics in this forum
You cannot reply to topics in this forum
You cannot edit your posts in this forum
You cannot delete your posts in this forum
You cannot vote in polls in this forum
You cannot attach files in this forum
You can download files in this forum