Барбоскины на даче (2020) WEBRip [H.264/1080p-LQ] скачать торрент

Reply to topic


DL-List and Torrent activity [Update пиров]
Size:  2.82 GB   |    Registered:  28 days   |    Completed:  0 times
Seeders:  39  [  0.3 KB/s  ]   Leechers:  1  [  9 MB/s  ]   Show peers in full details
 
 
 
 
Author Message

Pro100Moder ®

Longevity: 7 years

Posts: 2549

Location: Earth


Post 09-Apr-2021 13:41

[Quote]

Барбоскины на даче - Производство: Россия / Melnitsa Animation Studio, CTB Film Company
Жанр: мультфильм, приключения
Режиссер: Елена Галдобина, Федор Дмитриев
Актеры: Екатерина Гороховская, Ксения Бржезовская, Максим Сергеев, Вадим Бочанов, Юлия Зоркина, Михаил Черняк, Мария Цветкова-Овсянникова, Валерий Смекалов, Иван Чабан
Описание:
Нешуточные страсти кипят на обычной даче, где отдыхает семья Барбоскиных. Коварные противники, фантастические изобретения, великосветские интриги, разбитые сердца и даже шпионские тайны. Справиться со всем этим под силу только настоящему индейцу – Малышу.

Возраст: 6+ (зрителям, достигшим 6 лет)
Дата российской премьеры: 24 декабря 2020, «СППР»
Релиз от: Natasha77
Продолжительность: 01:13:36
Качество видео: WEBRip
Субтитры: отсутствуют
Видео: AVC/H.264, 1920x804, ~5120 kbps
Аудио: AC3, 6 ch, 384 kbps, Русский

MediaInfo:

Общее
Уникальный идентификатор : 332044919859269260253527135050671775371 (0xF9CD8680DE17549F0D3573801146DE8B)
Полное имя : E:\Барбоскины на даче.1080p.WEB-DL.mkv
Формат : Matroska
Версия формата : Version 4
Размер файла : 2,82 Гбайт
Продолжительность : 1 ч. 13 м.
Общий поток : 5494 Кбит/сек
Дата кодирования : UTC 2021-02-18 04:43:28
Программа кодирования : mkvmerge v53.0.0 ('Fool's Gold') 32-bit
Библиотека кодирования : libebml v1.4.1 + libmatroska v1.6.2
Видео
Идентификатор : 1
Формат : AVC
Формат/Информация : Advanced Video Codec
Профиль формата : [email protected]
Настройки формата : CABAC / 4 Ref Frames
Параметр CABAC формата : Да
Параметр RefFrames формата : 4 кадра
Параметр GOP формата : M=7, N=50
Идентификатор кодека : V_MPEG4/ISO/AVC
Продолжительность : 1 ч. 13 м.
Битрейт : 5120 Кбит/сек
Ширина : 1920 пикселей
Высота : 804 пикселя
Соотношение сторон : 2,40:1
Режим частоты кадров : Постоянный
Частота кадров : 25,000 кадров/сек
Цветовое пространство : YUV
Субдискретизация насыщенности : 4:2:0
Битовая глубина : 8 бит
Тип развёртки : Прогрессивная
Бит/(Пиксели*Кадры) : 0.133
Размер потока : 2,63 Гбайт (93%)
Библиотека кодирования : x264 core 148
Default : Да
Forced : Нет
Аудио
Идентификатор : 2
Формат : AC-3
Формат/Информация : Audio Coding 3
Коммерческое название : Dolby Digital
Идентификатор кодека : A_AC3
Продолжительность : 1 ч. 13 м.
Вид битрейта : Постоянный
Битрейт : 384 Кбит/сек
Каналы : 6 каналов
ChannelLayout : L R C LFE Ls Rs
Частота : 48,0 КГц
Частота кадров : 31,250 кадров/сек (1536 SPF)
Битовая глубина : 16 бит
Метод сжатия : С потерями
Задержка видео : -80 мс.
Размер потока : 202 Мбайт (7%)
ServiceKind/String : Complete Main
Default : Да
Forced : Нет
-Скриншоты:


Смотреть онлайн

[trackeroc.org].32853.torrent  Магнет ссылка
Torrent: Registered   [ 2021-04-09 13:41 ]

Скачать торрент

15 KB

Status: checked
Completed: 163 times
Size: 2.82 GB
 

trackeroc.info (09-апр-21)

Similar torrent
Forum Topic Author Size
Отечественные Мультсериалы Барбоскины (2011-2021) (сезон 1-15, серии 1-219 из 227) trackeroc.info 12.93 GB

_________________
[Profile] [PM]
Display posts from previous:    
Reply to topic

The time now is: Today 05:25

All times are GMT + 4 Hours



You cannot post new topics in this forum
You cannot reply to topics in this forum
You cannot edit your posts in this forum
You cannot delete your posts in this forum
You cannot vote in polls in this forum
You cannot attach files in this forum
You can download files in this forum