Человек-паук: Нет пути домой / Spider-Man: No Way Home [2021, HDRip] Dub скачать торрент

Reply to topic


DL-List and Torrent activity [Update пиров]
Size:  1.48 GB   |    Registered:  29 days   |    Completed:  1 time
Seeders:  3  [  0 KB/s  ]   Show peers in full details
 
 
 
 
Author Message

.:Rtuty:. ®

Longevity: 1 month 13 days

Posts: 33

Location: Москва


Post 06-Jun-2022 18:37

[Quote]

-Человек-паук: Нет пути домой / Spider-Man: No Way Home
- Страна: США
Жанр: фантастика, боевик, приключения, фэнтези
Год выпуска: 2021
Продолжительность: 02:28:09-Перевод: Человек-паук: Нет пути домой / Spider-Man: No Way Home
Субтитры: русские (forced)
Оригинальная аудиодорожка: нет-Режиссер: Джон Уоттс / Jon Watts-В ролях: Том Холланд, Зендея, Бенедикт Камбербэтч, Мариса Томей, Уиллем Дефо, Альфред Молина, Джейми Фокс, Томас Хейден Чёрч, Рис Иванс, Джейкоб Баталон-Описание: Жизнь и репутация Питера Паркера оказываются под угрозой, поскольку Мистерио раскрыл всему миру тайну личности Человека-паука. Пытаясь исправить ситуацию, Питер обращается за помощью к Стивену Стрэнджу, но вскоре всё становится намного опаснее.- -Качество видео: HDRip
Формат видео: AVI
Видео: 720x304 (2.37:1), 23.976 fps, XviD build 73 ~1226 kbps avg, 0.23 bit/pixel
Аудио: 48 kHz, AC3 Dolby Digital, 2/0 (L,R) ch, ~192 kbps-

MediaInfo

Код:
Формат                                   : AVI
Формат/Информация                        : Audio Video Interleave
Размер файла                             : 1,48 Гбайт
Продолжительность                        : 2 ч. 28 м.
Общий поток                              : 1 428 Кбит/сек
Название фильма                          : Человек-паук Нет пути домой_2021_HDRip
Программа кодирования                    : VirtualDubMod 1.5.10.3 | www.virtualdub-fr.org || (build 2550/release)
Авторское право                          : порошков
Видео
Идентификатор                            : 0
Формат                                   : MPEG-4 Visual
Профиль формата                          : Advanced [email protected]
Настройки формата                        : BVOP1 / Custom Matrix
Параметр BVOP формата                    : 1
Параметр QPel формата                    : Нет
Параметр GMC формата                     : Без точки перехода
Параметр матрицы формата                 : Выборочная
Идентификатор кодека                     : XVID
Идентификатор кодека/Подсказка           : XviD
Продолжительность                        : 2 ч. 28 м.
Битрейт                                  : 1 226 Кбит/сек
Ширина                                   : 720 пикселей
Высота                                   : 304 пикселя
Соотношение сторон                       : 2,35:1
Частота кадров                           : 23,976 (24000/1001) кадра/сек
Цветовое пространство                    : YUV
Субдискретизация насыщенности            : 4:2:0
Битовая глубина                          : 8 бит
Тип развёртки                            : Прогрессивная
Метод сжатия                             : С потерями
Бит/(Пиксели*Кадры)                      : 0.234
Размер потока                            : 1,27 Гбайт (86%)
Библиотека кодирования                   : XviD 73
Аудио
Идентификатор                            : 1
Формат                                   : AC-3
Формат/Информация                        : Audio Coding 3
Коммерческое название                    : Dolby Digital
Идентификатор кодека                     : 2000
Продолжительность                        : 2 ч. 28 м.
Вид битрейта                             : Постоянный
Битрейт                                  : 192 Кбит/сек
Каналы                                   : 2 канала
Channel layout                           : L R
Частота                                  : 48,0 КГц
Частота кадров                           : 31,250 кадров/сек (1536 SPF)
Метод сжатия                             : С потерями
Размер потока                            : 203 Мбайт (13%)
Выравнивание                             : Разделение по промежуткам
Продолжительность промежутка             : 42  мс. (1,00 видеокадр)
Время предзагрузки промежутка            : 500  мс.
Service kind                             : Complete Main

Скриншоты

На днях залью Вдали от дома завтра или после завтра


Смотреть онлайн

[trackeroc.org].34670.torrent  Магнет ссылка
Torrent: Registered   [ 2022-06-06 18:37 ]

Скачать торрент

15 KB

Status: checked
Completed: 35 times
Size: 1.48 GB
 

trackeroc.info (06-июн-22)

Similar torrent
Forum Topic Author Size
Фантастика ,Фэнтези Человек-паук: Вдали от дома / Spider-Man: Far from Home [2019, WEBRip 1080p] [Extended Cut] .:Rtuty:. 5.25 GB
Квесты, я ищу, Поиск предметов, Hidden Object Crossroads: On a Just Path / Перекресток: На верном пути [RUS / ENG] (2021) trackeroc.info 1.17 GB
Зарубежные Супермен: Человек завтрашнего дня / Superman: Man of Tomorrow (2020) WEB-DLRip trackeroc.org 1.16 GB
Ужасы ,мистика ,триллеры Человек-невидимка / The Invisible Man (2020) WEB-DLRip trackeroc.info 1.46 GB

_________________
[Profile] [PM]
Display posts from previous:    
Reply to topic

The time now is: Today 18:11

All times are GMT + 4 Hours



You cannot post new topics in this forum
You cannot reply to topics in this forum
You cannot edit your posts in this forum
You cannot delete your posts in this forum
You cannot vote in polls in this forum
You cannot attach files in this forum
You can download files in this forum