Довод / Tenet (2020) TSRip [AD] скачать торрент

Reply to topic

DL-List and Torrent activity [Update пиров]
Size:  1.47 GB   |    Registered:  12 days   |    Completed:  0 times

Seeder not seen: Never

 
 
 
 
 
Author Message

Captain ®

Longevity: 6 years 5 months

Posts: 2557

Location: Earth


Post 16-Sep-2020 00:20

[Quote]

Довод / Tenet «Время уходит»- Производство: Великобритания, США / Syncopy, Warner Bros.
Жанр: Фантастика, боевик
Режиссер: Кристофер Нолан
Актеры: Джон Дэвид Вашингтон, Роберт Паттинсон, Элизабет Дебики, Кеннет Брана, Аарон Тейлор-Джонсон, Клеманс Поэзи, Фиона Дуриф, Майкл Кейн, Химеш Патель, Эндрю Ховард
Описание:
После теракта в киевском оперном театре агент ЦРУ объединяется с британской разведкой, чтобы противостоять русскому олигарху, который сколотил состояние на торговле оружием. Для этого агенты используют инверсию времени, заставляющую уже произошедшие события идти вспять.

Возраст: 16+ (зрителям, достигшим 16 лет)
Рейтинг MPAA: PG-13 (детям до 13 лет просмотр нежелателен)
Дата мировой премьеры: 22 августа 2020
Дата премьеры в России: 3 сентября 2020

Продолжительность: 02:23:48
Качество видео: TSRip
Перевод: Дублированный
Субтитры: Отсутствуют
Реклама: Присутствует баннер, звуковая реклама
Видео: Xvid, 720x304, 1326 kbps
Аудио: MP3, 2 ch, 128 Kbps

MediaInfo:

Общее
Полное имя : Tenet.2020.D.TS.avi
Формат : AVI
Формат/Информация : Audio Video Interleave
Профиль формата : OpenDML
Размер файла : 1,47 Гбайт
Продолжительность : 2 ч. 23 м.
Общий поток : 1468 Кбит/сек
Библиотека кодирования : VirtualDub build 41106/release
Видео
Идентификатор : 0
Формат : MPEG-4 Visual
Профиль формата : Advanced [email protected]
Настройки формата : BVOP2
Параметр BVOP формата : 2
Параметр QPel формата : Нет
Параметр GMC формата : Без точки перехода
Параметр матрицы формата : Default (MPEG)
Идентификатор кодека : XVID
Идентификатор кодека/Подсказка : XviD
Продолжительность : 2 ч. 23 м.
Битрейт : 1326 Кбит/сек
Ширина : 720 пикселей
Высота : 304 пикселя
Соотношение сторон : 2,35:1
Частота кадров : 23,976 (24000/1001) кадра/сек
Цветовое пространство : YUV
Субдискретизация насыщенности : 4:2:0
Битовая глубина : 8 бит
Тип развёртки : Прогрессивная
Метод сжатия : С потерями
Бит/(Пиксели*Кадры) : 0.253
Размер потока : 1,33 Гбайт (90%)
Библиотека кодирования : XviD 1.2.1 (UTC 2008-12-04)
Аудио
Идентификатор : 1
Формат : MPEG Audio
Версия формата : Version 1
Профиль формата : Layer 3
Идентификатор кодека : 55
Идентификатор кодека/Подсказка : MP3
Продолжительность : 2 ч. 23 м.
Вид битрейта : Постоянный
Битрейт : 128 Кбит/сек
Каналы : 2 канала
Частота : 48,0 КГц
Метод сжатия : С потерями
Размер потока : 132 Мбайт (9%)
Выравнивание : Соединение по промежуткам
Продолжительность промежутка : 24 мс. (0,58 видеокадр)
Время предзагрузки промежутка : 504 мс.
-Скриншоты:


Смотреть онлайн

[trackeroc.org].31823.torrent  Магнет ссылка
Torrent: Registered   [ 2020-09-16 00:20 ]

Скачать торрент

60 KB

Status: T temporary
Completed: 15 times
Size: 1.47 GB
 

trackeroc.org (16-сен-20)


_________________
[Profile] [PM]
Display posts from previous:    
Reply to topic

The time now is: Today 00:48

All times are GMT + 4 Hours



You cannot post new topics in this forum
You cannot reply to topics in this forum
You cannot edit your posts in this forum
You cannot delete your posts in this forum
You cannot vote in polls in this forum
You cannot attach files in this forum
You can download files in this forum