Грань / За гранью / Fringe (2008-2013) HDRip, WEB-DLRip (сезоны 1-5, серии 1-100 из 100) LostFilm скачать торрент

Reply to topic


DL-List and Torrent activity [Update пиров]
Size:  42.37 GB   |    Registered:  25 days   |    Completed:  0 times
Seeders:  5  [  659 KB/s  ]   Leechers:  2  [  7 MB/s  ]   Show peers in full details
 
 
 
 
Author Message

Pro100Moder ®

Longevity: 7 years 7 months

Posts: 2476

Location: Earth


Post 08-Oct-2016 04:09

[Quote]

Грань / За гранью / Fringe «Imagine the Impossibilities»- Производство: США, Канада / Bad Robot, Warner Bros. Television, FB2 Films
Жанр: фантастика, триллер, драма, детектив
Режиссер: Джо Чаппелль, Брэд Андерсон, Фред Туа
Актеры: Анна Торв, Джошуа Джексон, Джон Ноубл, Джесика Николь, Лэнс Реддик, Блэр Браун, Майкл Серверис, Кирк Асеведо, Сет Гейбл, Леонард Нимой
Описание:
В сериале рассказывается о специальном агенте ФБР Оливии Данэм , безумном ученом Уолторе Бишопе и его сыне Питере, которые исследуют аспекты науки за гранью (телепатия, левитация, невидимость, реинкарнация, генетическая мутация, и т.д). Происходит ряд достаточно загадочных событий, называемые «Схемой» (например, новорождённый ребёнок, за считанные минуты взрослеет и умирает; автобус наполняется странным веществом, которое мгновенно затвердевает, а пассажиры становятся как москиты в янтаре), как будто кто-то экспериментирует, но уже над целым миром, а Оливия, Питер и Уолтер берутся за расследование этих странных событий, чтобы определить их источник. Они обнаруживают связь «Схемы» с корпорацией под названием Мэссив Дайнемик, которая является ведущей глобальной исследовательской компанией, с кучей патентов на многие новые и важные технологии.

Возраст: 16+ (зрителям, достигшим 16 лет)
Продолжительность: ~00:44:00 серия
Качество видео: HDRip (сезоны 1-3), WEB-DLRip (сезоны 4-5)
Перевод: Многоголосый (LostFilm)
Реклама: в отдельных сериях присутствует логотип и заставка LostFilm
Видео: XviD, 624x352, ~1000 Kbps (сезоны 1-3); XviD, 720x400, ~1400-1800 Kbps (сезоны 4-5)
Аудио: MP3, 2 ch, 128 Kbps (сезоны 1-3); MP3, 2 ch, 192 Kbps (сезоны 4-5)

MediaInfo:

Общее
Полное имя : \Fringe\Fringe_s02\Fringe.S02E02.HDRip.LostFilm.avi
Формат : AVI
Формат/Информация : Audio Video Interleave
Размер файла : 360 Мбайт
Продолжительность : 43 м. 55 с.
Общий поток : 1147 Кбит/сек
Программа кодирования : VirtualDubMod 1.5.10.3 | www.virtualdub-fr.org || (build 2550/release)
Библиотека кодирования : VirtualDubMod build 2550/release
Видео
Идентификатор : 0
Формат : MPEG-4 Visual
Профиль формата : Advanced [email protected]
Настройки формата : BVOP1 / Custom Matrix
Параметр BVOP формата : 1
Параметр QPel формата : Нет
Параметр GMC формата : Без точки перехода
Параметр матрицы формата : Выборочная
Идентификатор кодека : XVID
Идентификатор кодека/Подсказка : XviD
Продолжительность : 43 м. 55 с.
Битрейт : 1010 Кбит/сек
Ширина : 624 пикселя
Высота : 352 пикселя
Соотношение сторон : 16:9
Частота кадров : 23,976 (24000/1001) кадра/сек
Цветовое пространство : YUV
Субдискретизация насыщенности : 4:2:0
Битовая глубина : 8 бит
Тип развёртки : Прогрессивная
Метод сжатия : С потерями
Бит/(Пиксели*Кадры) : 0.192
Размер потока : 317 Мбайт (88%)
Библиотека кодирования : XviD 63
Аудио
Идентификатор : 1
Формат : MPEG Audio
Версия формата : Version 1
Профиль формата : Layer 3
Настройки формата : Joint stereo / MS Stereo
Идентификатор кодека : 55
Идентификатор кодека/Подсказка : MP3
Продолжительность : 43 м. 55 с.
Вид битрейта : Постоянный
Битрейт : 128 Кбит/сек
Каналы : 2 канала
Частота : 48,0 КГц
Частота кадров : 41,667 кадра/сек (1152 SPF)
Метод сжатия : С потерями
Размер потока : 40,2 Мбайт (11%)
Выравнивание : Соединение по промежуткам
Продолжительность промежутка : 42 мс. (1,00 видеокадр)
Время предзагрузки промежутка : 504 мс.
Библиотека кодирования : LAME3.98r
Настройки программы : -m j -V 4 -q 0 -lowpass 17 -b 128-Общее
Полное имя : \Fringe\Fringe_s05\Fringe.S05E02.WEB-DLRip.LostFilm.avi
Формат : AVI
Формат/Информация : Audio Video Interleave
Размер файла : 612 Мбайт
Продолжительность : 42 м. 36 с.
Общий поток : 2008 Кбит/сек
Программа кодирования : Nandub v1.0rc2
Библиотека кодирования : Nandub build 1853/release
Видео
Идентификатор : 0
Формат : MPEG-4 Visual
Профиль формата : [email protected]
Параметр BVOP формата : Нет
Параметр QPel формата : Нет
Параметр GMC формата : Без точки перехода
Параметр матрицы формата : Default (H.263)
Идентификатор кодека : XVID
Идентификатор кодека/Подсказка : XviD
Продолжительность : 42 м. 36 с.
Битрейт : 1803 Кбит/сек
Ширина : 720 пикселей
Высота : 400 пикселей
Соотношение сторон : 16:9
Частота кадров : 23,976 (24000/1001) кадра/сек
Цветовое пространство : YUV
Субдискретизация насыщенности : 4:2:0
Битовая глубина : 8 бит
Тип развёртки : Прогрессивная
Метод сжатия : С потерями
Бит/(Пиксели*Кадры) : 0.261
Размер потока : 550 Мбайт (90%)
Библиотека кодирования : XviD 1.2.1 (UTC 2008-12-04)
Аудио
Идентификатор : 1
Формат : MPEG Audio
Версия формата : Version 1
Профиль формата : Layer 3
Настройки формата : Joint stereo / MS Stereo
Идентификатор кодека : 55
Идентификатор кодека/Подсказка : MP3
Продолжительность : 42 м. 36 с.
Вид битрейта : Постоянный
Битрейт : 192 Кбит/сек
Каналы : 2 канала
Частота : 48,0 КГц
Метод сжатия : С потерями
Размер потока : 58,5 Мбайт (10%)
Выравнивание : Соединение по промежуткам
Продолжительность промежутка : 24 мс. (0,58 видеокадр)
Время предзагрузки промежутка : 480 мс.
Библиотека кодирования : LAME3.97 (beta)

Список серий:

1 Сезон:
01. Пилотная серия (Pilot)
02. Старая история (The Same Old Story)
03. Призрачная сеть (The Ghost Network)
04. Прибытие (The Arrival)
05. Подзарядка (Power Hungry)
06. Исцеление (The Cure)
07. Так мы познакомились с мистером Джонсом (In Which We Meet Mr. Jones)
08. Уравнение (The Equation)
09. В глубинах сознания (The Dreamscape)
10. Сейф (Safe)
11. В путах (Bound)
12. Пустая голова (The No-Brainer)
13. Трансформация (The Transformation)
14. Способность (Ability)
15. Ребенок внутри нас (Inner Child)
16. На волю (Unleashed)
17. Ночные кошмары (Bad Dreams)
18. Полночь (Midnight)
19. Не выбранный путь (The Road Not Taken)
20. Всему есть альтернатива (There's More Than One of Everything)
2 Сезон:
01. Новый день в старом городе / A New Day in the Old Town
02. Ночь Желанного Улова / Night of Desirable Objects
03. Раскол / Fracture
04. Замедленное движение / Momentum Deferred
05. Логика сна / Dream Logic
06. Землянин / Earthling
07. Человеческие деяния / Of Human Action
08. Август / August
09. Змееголов / Snakehead
10. Серое вещество / Grey Matters
11. Внеземной / Unearthed
12. Окно Джохари / Johari Window
13. Из недр земли / What Lies Below
14. Воскрешение Бишопа / The Bishop Revival
15. Джэксонвиль / Jacksonville
16. Питер / Peter
17. Оливия. В лаборатории. С револьвером / Olivia. In the Lab. With the Revolver
18. Белый тюльпан / White Tulip
19. Человек с другой стороны / The Man from the Other Side
20. Коричневая Бетти / Brown Betty
21. Северо-западный перевал / Northwest Passage
22. На той стороне. Часть 1 / Over There, Part 1
23. На той стороне. Часть 2 / Over There, Part 2
3 Сезон:
01. Оливия / Olivia
02. Шкатулка / The Box
03. Плато / The Plateau
04. Снятся ли оборотням электроовцы? / Do Shapeshifters Dream of Electric Sheep?
05. Янтарь 31422 / Amber 31422
06. 6955 kHz / 6955 kHz
07. Похищенные / The Abducted
08. Переход / Entrada
09. Марионетка / Marionette
10. Светлячок / The Firefly
11. Взаимодействие / Reciprocity
12. Сосредоточься и Спроси Ещё Раз / Concentrate And Ask Again
13. Бессмертие / Immortality
14. 6Б / 6B
15. Объект 13 / Subject 13
16. Осмий / Os
17. Безбилетный пассажир / Stowaway
18. Родословная / Bloodline
19. Диэтиламид Лизергиновой Кислоты / Lysergic Acid Diethylamide
20. 6:02 / 6:02 AM EST
21. Последний Сэм Вайc / The Last Sam Weiss
22. В тот день мы погибли / The Day We Died
4 Сезон:
01. Ни тут, ни там / Neither Here Nor There
02. Ночь в Октябре / One Night In October
03. Один на свете / Alone In The World
04. Объект 9 / Subject 9
05. Новшество / Novation
06. Те, кого мы оставили позади / And Those We've Left Behind
07. Одиночка / Wallflower
08. Туда, где вы никогда не были / Back to Where You've Never Been
09. Враг моего врага / Enemy of My Enemy
10. Вынужденная перспектива / Forced Perspective
11. Сотворяя ангелов / Making Angels
12. Добро пожаловать в Вестфилд / Welcome to Westfield
13. Лучший человек / A Better Human Being
14. Конец всего / The End of All Things
15. Рассказ о любви / A Short Story About Love
16. Все не то, чем кажется / Nothing as It Seems
17. Все на своем месте / Everything In Its Right Place
18. Консультант / The Consultant
19. Письма от транзита / Letters of Transit
20. Разделенные мирами / Worlds Apart
21. Дивный новый мир (Часть 1) / Brave New World (Part 1)
22. Дивный новый мир (Часть 2) / Brave New World (Part 2)
5 Сезон:
01. Мгновенный Объединитель Мыслей Модель-11 / Transilience Thought Unifier Model-11
02. В отсутствие / In Absentia
03. Писатель / The Recordist
04. Пуля, которая спасла мир / The Bullet That Saved the World
05. История возникновения / An Origin Story
06. Уолтер в Зазеркалье / Through the Looking Glass and What Walter Found There
07. Пять-двадцать-десять / Five-Twenty-Ten
08. Человеческий род / The Human Kind
09. Чёрная марка / Black Blotter
10. Аномалия XB-6783746 / Anomaly XB-6783746
11. Мальчик должен жить / The Boy Must Live
12. Свобода / Liberty
13. Враг судьбы / An Enemy of Fate
-Скриншоты:

Дополнительные скриншоты:






Смотреть онлайн

[trackeroc.org].15639.torrent  Магнет ссылка
 SILVER TORRENT! DOWNLOAD TRAFFIC PARTIALLY CONSIDERED! 
Torrent: Registered   [ 2021-11-14 04:52 ]

Скачать торрент

220 KB

Status: checked
Completed: 307 times
Size: 42.37 GB
 

trackeroc.info (08-окт-16)

[Profile] [PM]
Display posts from previous:    
Reply to topic

The time now is: Today 07:46

All times are GMT + 4 Hours



You cannot post new topics in this forum
You cannot reply to topics in this forum
You cannot edit your posts in this forum
You cannot delete your posts in this forum
You cannot vote in polls in this forum
You cannot attach files in this forum
You can download files in this forum