Кащей Бессмертный (1944 / 2014) WEB-DL [H.264/1080p-LQ] [Колоризованная версия] скачать торрент

Reply to topic

DL-List and Torrent activity [Update пиров]
Size:  4.48 GB   |    Registered:  1 month 1 day   |    Completed:  0 times

Seeder not seen: Never

 
 
 
 
 
Author Message

Captain ®

Longevity: 6 years 6 months

Posts: 2561

Location: Earth


Post 24-Sep-2020 04:06

[Quote]

Кащей Бессмертный - Производство: СССР / «Союздетфильм»
Жанр: детский, сказка
Режиссер: Александр Роу
Актеры: Александр Ширшов, Георгий Милляр, Сергей Столяров, Галина Григорьева, Сергей Филиппов, Эммануил Геллер, Леонид Кровицкий, Иван Рыжов, Сергей Троицкий.
Описание:
Эпическая сказка, снятая в годы Второй Мировой войны. Русские богатыри Никита Кожемяка и Булат Балагур спасают землю русскую от вражьих полчищ Кащея Бессмертного и освобождают красавицу Марью Моревну.

Возраст: 0+ (для любой зрительской аудитории)
Продолжительность: 01:03:20
Качество видео: WEB-DL
Субтитры: отсутствуют
Видео: AVC/H.264, 1440x1080, ~9 905 kbps
Аудио: AC3, 2 ch, 224 kbps, Русский

MediaInfo:

General
Unique ID : 66282442381452478369357825033513222411 (0x31DD88B7F4E89F9DCB41D02EE030410B)
Complete name : Kashchey bessmertnyy (1944) 1080p [COLOR].mkv
Format : Matroska
Format version : Version 4
File size : 4.48 GiB
Duration : 1 h 3 min
Overall bit rate : 10.1 Mb/s
Encoded date : UTC 2019-08-29 17:27:43
Writing application : mkvmerge v36.0.0 ('Is That Jazz?') 64-bit
Writing library : libebml v1.3.9 + libmatroska v1.5.2
Video
ID : 1
Format : AVC
Format/Info : Advanced Video Codec
Format profile : [email protected]
Format settings : CABAC / 4 Ref Frames
Format settings, CABAC : Yes
Format settings, Reference frames : 4 frames
Codec ID : V_MPEG4/ISO/AVC
Duration : 1 h 3 min
Bit rate : 9 905 kb/s
Width : 1 440 pixels
Height : 1 080 pixels
Display aspect ratio : 4:3
Frame rate mode : Constant
Frame rate : 25.000 FPS
Color space : YUV
Chroma subsampling : 4:2:0
Bit depth : 8 bits
Scan type : Progressive
Bits/(Pixel*Frame) : 0.255
Stream size : 4.38 GiB (98%)
Default : Yes
Forced : No
Color range : Limited
Color primaries : BT.709
Transfer characteristics : BT.709
Matrix coefficients : BT.709
Audio
ID : 2
Format : E-AC-3
Format/Info : Enhanced AC-3
Commercial name : Dolby Digital Plus
Codec ID : A_EAC3
Duration : 1 h 3 min
Bit rate mode : Constant
Bit rate : 224 kb/s
Channel(s) : 2 channels
Channel layout : L R
Sampling rate : 48.0 kHz
Frame rate : 31.250 FPS (1536 SPF)
Compression mode : Lossy
Stream size : 101 MiB (2%)
Language : Russian
Service kind : Complete Main
Default : Yes
Forced : No

Дополнительная информация:

В 2014 году к 70-летнему юбилею фильма кинокомпанией «Руссико Планета» была проведена реставрация и колоризация картины.
-Скриншоты:


Смотреть онлайн

[trackeroc.org].31898.torrent  Магнет ссылка
Torrent: Registered   [ 2020-09-24 04:06 ]

Скачать торрент

12 KB

Status: checked
Completed: 46 times
Size: 4.48 GB
 

trackeroc.org (24-сен-20)

Similar torrent
Forum Topic Author Size
Квесты, я ищу, Поиск предметов, Hidden Object Hidden Expedition 12: The Eternal Emperor (Collector's Edition) / Секретная экспедиция 12: Бессмертный император (Коллекционное издание) [P] [RUS / ENG] (2016) HOPE 767 MB
Документальные ,Трейлеры Бессмертный полк. Крым (2016.05.09) SATRip Captain 1.08 GB

_________________
[Profile] [PM]
Display posts from previous:    
Reply to topic

The time now is: Today 11:38

All times are GMT + 4 Hours



You cannot post new topics in this forum
You cannot reply to topics in this forum
You cannot edit your posts in this forum
You cannot delete your posts in this forum
You cannot vote in polls in this forum
You cannot attach files in this forum
You can download files in this forum