Королевство / Kingdom (2019-2020) WEB-DL [H.264/1080p-LQ] (сезон 1-2, серии 1-12 из 12) LostFilm, Кубик в Кубе, HDRezka скачать торрент

Reply to topic


DL-List and Torrent activity [Update пиров]
Size:  29.74 GB   |    Registered:  1 month 14 days   |    Completed:  0 times

Seeder not seen: Never

 
 
 
 
 
Author Message

Pro100Moder ®

Longevity: 6 years 11 months

Posts: 2542

Location: Earth


Post 01-Mar-2021 09:07

[Quote]

Королевство / Kingdom - Производство: Южная Корея / AStory, NetFlix
Жанр: Ужасы, боевик, триллер, детектив
Режиссер: Ким Сон-хун, Пак Ин-джэ
Актеры: Чу Джи-хун, Рю Сын-нён, Пэ Ду-на, Ким Сан-хо, Хо Джун-хо, Ким Сон-гю, Чон Сок-хо, Ким Хе-джун, Пак Пён-ын, Ким Тхэ-хун и др.
Описание:
Чосон после разорительной войны. Долго болевший правитель умирает, но возвращается к жизни в виде плотоядной нежити, что тщательно скрывает королевский советник Чо, при этом не забывая регулярно кормить монарха придворными. После неудачной попытки увидеться с отцом наследный принц Ли Чхан, рискуя быть обвинённым в государственной измене, покидает дворец, чтобы встретиться с лечившим правителя лекарем Ли. Прибыв в сельскую больницу, где практиковал Ли, принц и его телохранитель обнаруживают полный разгром и кучи трупов, спрятанных от солнца.

Возраст: 18+ (зрителям, достигшим 18 лет. запрещено для детей)
Релиз от: NNM-Club
Продолжительность: ~00:56:00 серия
Качество видео: WEB-DL
Перевод: Многоголосый профессиональный, двуголосый профессиональный
Язык озвучки: Русский, корейский
Субтитры: Русские, Английские (full, SDH)
Видео: AVC/H.264, 1920x1080, ~4220-7500 Kbps
Аудио 1: AC3, 6 ch, 640 Kbps - Русский (MVO Lostfilm)
Аудио 2: AC3, 6 ch, 640 Kbps (DVO КвК) - сезон 1; 2 ch, 192 Kbps (MVO HDRezka) - сезон 2
Аудио 3: E-AC-3, 6 ch, 640 - сезон 1; 768 Kbps - сезон 2 - Корейский

MediaInfo:

Общее
Уникальный идентификатор : 46287938335192947172421107900461131971 (0x22D2BB8EF981AC914F9D8A635C28A8C3)
Формат : Matroska
Версия формата : Version 4
Размер файла : 2,42 Гбайт
Продолжительность : 56 м. 49 с.
Режим общего битрейта : Переменный
Общий поток : 6098 Кбит/сек
Дата кодирования : UTC 2021-02-28 12:58:35
Программа кодирования : mkvmerge v51.0.0 ('I Wish') 64-bit
Библиотека кодирования : libebml v1.4.0 + libmatroska v1.6.2
Видео
Идентификатор : 1
Формат : AVC
Формат/Информация : Advanced Video Codec
Профиль формата : [email protected]
Настройки формата : CABAC / 3 Ref Frames
Параметр CABAC формата : Да
Параметр RefFrames формата : 3 кадра
Идентификатор кодека : V_MPEG4/ISO/AVC
Продолжительность : 56 м. 49 с.
Вид битрейта : Переменный
Битрейт : 4220 Кбит/сек
Максимальный битрейт : 6330 Кбит/сек
Ширина : 1920 пикселей
Высота : 1080 пикселей
Соотношение сторон : 16:9
Режим частоты кадров : Постоянный
Частота кадров : 23,976 (24000/1001) кадра/сек
Цветовое пространство : YUV
Субдискретизация насыщенности : 4:2:0
Битовая глубина : 8 бит
Тип развёртки : Прогрессивная
Бит/(Пиксели*Кадры) : 0.085
Размер потока : 1,66 Гбайт (68%)
Библиотека кодирования : x264 core 148 r2715 7e75228
Настройки программы : cabac=1 / ref=3 / deblock=1:0:0 / analyse=0x1:0x111 / me=umh / subme=10 / psy=1 / psy_rd=1.00:0.00 / mixed_ref=1 / me_range=24 / chroma_me=1 / trellis=2 / 8x8dct=0 / cqm=0 / deadzone=21,11 / fast_pskip=1 / chroma_qp_offset=-2 / threads=8 / lookahead_threads=1 / sliced_threads=0 / nr=0 / decimate=1 / interlaced=0 / bluray_compat=0 / stitchable=1 / constrained_intra=0 / bframes=2 / b_pyramid=0 / b_adapt=2 / b_bias=0 / direct=3 / weightb=1 / open_gop=0 / weightp=2 / keyint=48 / keyint_min=25 / scenecut=0 / intra_refresh=0 / rc_lookahead=48 / rc=2pass / mbtree=1 / bitrate=4220 / ratetol=1.0 / qcomp=0.50 / qpmin=6 / qpmax=51 / qpstep=4 / cplxblur=20.0 / qblur=0.5 / vbv_maxrate=6330 / vbv_bufsize=8440 / nal_hrd=vbr / filler=0 / ip_ratio=1.40 / aq=1:1.00
Язык : English
Default : Да
Forced : Нет
Аудио #1
Идентификатор : 2
Формат : AC-3
Формат/Информация : Audio Coding 3
Коммерческое название : Dolby Digital
Идентификатор кодека : A_AC3
Продолжительность : 56 м. 49 с.
Вид битрейта : Постоянный
Битрейт : 640 Кбит/сек
Каналы : 6 каналов
ChannelLayout : L R C LFE Ls Rs
Частота : 48,0 КГц
Частота кадров : 31,250 кадров/сек (1536 SPF)
Битовая глубина : 16 бит
Метод сжатия : С потерями
Размер потока : 260 Мбайт (10%)
Заголовок : MVO | LostFilm
Язык : Russian
ServiceKind/String : Complete Main
Default : Да
Forced : Нет
Аудио #2
Идентификатор : 3
Формат : AC-3
Формат/Информация : Audio Coding 3
Коммерческое название : Dolby Digital
Идентификатор кодека : A_AC3
Продолжительность : 56 м. 49 с.
Вид битрейта : Постоянный
Битрейт : 640 Кбит/сек
Каналы : 6 каналов
ChannelLayout : L R C LFE Ls Rs
Частота : 48,0 КГц
Частота кадров : 31,250 кадров/сек (1536 SPF)
Битовая глубина : 16 бит
Метод сжатия : С потерями
Размер потока : 260 Мбайт (10%)
Заголовок : DVO | Кубик в кубе
Язык : Russian
ServiceKind/String : Complete Main
Default : Нет
Forced : Нет
Аудио #3
Идентификатор : 4
Формат : E-AC-3
Формат/Информация : Enhanced AC-3
Коммерческое название : Dolby Digital Plus
Идентификатор кодека : A_EAC3
Продолжительность : 56 м. 49 с.
Вид битрейта : Постоянный
Битрейт : 640 Кбит/сек
Каналы : 6 каналов
ChannelLayout : L R C LFE Ls Rs
Частота : 48,0 КГц
Частота кадров : 31,250 кадров/сек (1536 SPF)
Метод сжатия : С потерями
Размер потока : 260 Мбайт (10%)
Язык : Korean
ServiceKind/String : Complete Main
Default : Нет
Forced : Нет
Текст #1
Идентификатор : 5
Формат : UTF-8
Идентификатор кодека : S_TEXT/UTF8
Идентификатор кодека/Информация : UTF-8 Plain Text
Продолжительность : 56 м. 8 с.
Битрейт : 58 бит/сек
ElementCount : 528
Размер потока : 24,2 Кбайт (0%)
Заголовок : Russian
Язык : Russian
Default : Да
Forced : Нет
Текст #2
Идентификатор : 6
Формат : UTF-8
Идентификатор кодека : S_TEXT/UTF8
Идентификатор кодека/Информация : UTF-8 Plain Text
Продолжительность : 55 м. 59 с.
Битрейт : 40 бит/сек
ElementCount : 528
Размер потока : 16,4 Кбайт (0%)
Заголовок : English
Язык : English
Default : Нет
Forced : Нет-Общее
Уникальный идентификатор : 337981549433253361484709767067058093486 (0xFE44E0F08AEBEB4C8762F7AC3EF4BDAE)
Формат : Matroska
Версия формата : Version 4
Размер файла : 3,26 Гбайт
Продолжительность : 52 м. 23 с.
Режим общего битрейта : Переменный
Общий поток : 8897 Кбит/сек
Дата кодирования : UTC 2021-02-28 14:19:39
Программа кодирования : mkvmerge v51.0.0 ('I Wish') 64-bit
Библиотека кодирования : libebml v1.4.0 + libmatroska v1.6.2
Видео
Идентификатор : 1
Формат : AVC
Формат/Информация : Advanced Video Codec
Профиль формата : [email protected]
Настройки формата : CABAC / 3 Ref Frames
Параметр CABAC формата : Да
Параметр RefFrames формата : 3 кадра
Идентификатор кодека : V_MPEG4/ISO/AVC
Продолжительность : 52 м. 23 с.
Вид битрейта : Переменный
Битрейт : 7500 Кбит/сек
Максимальный битрейт : 11,2 Мбит/сек
Ширина : 1920 пикселей
Высота : 1080 пикселей
Соотношение сторон : 16:9
Режим частоты кадров : Постоянный
Частота кадров : 23,976 (24000/1001) кадра/сек
Цветовое пространство : YUV
Субдискретизация насыщенности : 4:2:0
Битовая глубина : 8 бит
Тип развёртки : Прогрессивная
Бит/(Пиксели*Кадры) : 0.151
Размер потока : 2,67 Гбайт (82%)
Библиотека кодирования : x264 core 148 r2717 0d2410d
Настройки программы : cabac=1 / ref=3 / deblock=1:0:0 / analyse=0x1:0x111 / me=umh / subme=10 / psy=1 / psy_rd=1.00:0.00 / mixed_ref=1 / me_range=24 / chroma_me=1 / trellis=2 / 8x8dct=0 / cqm=0 / deadzone=21,11 / fast_pskip=1 / chroma_qp_offset=-2 / threads=6 / lookahead_threads=1 / sliced_threads=0 / nr=0 / decimate=1 / interlaced=0 / bluray_compat=0 / stitchable=1 / constrained_intra=0 / bframes=2 / b_pyramid=0 / b_adapt=2 / b_bias=0 / direct=3 / weightb=1 / open_gop=0 / weightp=2 / keyint=250 / keyint_min=23 / scenecut=0 / intra_refresh=0 / rc_lookahead=48 / rc=2pass / mbtree=1 / bitrate=7500 / ratetol=1.0 / qcomp=0.50 / qpmin=6 / qpmax=51 / qpstep=4 / cplxblur=20.0 / qblur=0.5 / vbv_maxrate=11250 / vbv_bufsize=15000 / nal_hrd=vbr / filler=0 / ip_ratio=1.40 / aq=1:1.00
Язык : English
Default : Да
Forced : Нет
Аудио #1
Идентификатор : 2
Формат : AC-3
Формат/Информация : Audio Coding 3
Коммерческое название : Dolby Digital
Идентификатор кодека : A_AC3
Продолжительность : 52 м. 23 с.
Вид битрейта : Постоянный
Битрейт : 640 Кбит/сек
Каналы : 6 каналов
ChannelLayout : L R C LFE Ls Rs
Частота : 48,0 КГц
Частота кадров : 31,250 кадров/сек (1536 SPF)
Битовая глубина : 16 бит
Метод сжатия : С потерями
Размер потока : 240 Мбайт (7%)
Заголовок : MVO | LostFilm
Язык : Russian
ServiceKind/String : Complete Main
Default : Нет
Forced : Нет
Аудио #2
Идентификатор : 3
Формат : AC-3
Формат/Информация : Audio Coding 3
Коммерческое название : Dolby Digital
Идентификатор кодека : A_AC3
Продолжительность : 52 м. 23 с.
Вид битрейта : Постоянный
Битрейт : 192 Кбит/сек
Каналы : 2 канала
ChannelLayout : L R
Частота : 48,0 КГц
Частота кадров : 31,250 кадров/сек (1536 SPF)
Битовая глубина : 16 бит
Метод сжатия : С потерями
Размер потока : 72,0 Мбайт (2%)
Заголовок : MVO | HDRezka Studio
Язык : Russian
ServiceKind/String : Complete Main
Default : Да
Forced : Нет
Аудио #3
Идентификатор : 4
Формат : E-AC-3 JOC
Формат/Информация : Enhanced AC-3 with Joint Object Coding
Коммерческое название : Dolby Digital Plus with Dolby Atmos
Идентификатор кодека : A_EAC3
Продолжительность : 52 м. 23 с.
Вид битрейта : Постоянный
Битрейт : 768 Кбит/сек
Каналы : 6 каналов
ChannelLayout : L R C LFE Ls Rs
Частота : 48,0 КГц
Частота кадров : 31,250 кадров/сек (1536 SPF)
Метод сжатия : С потерями
Размер потока : 288 Мбайт (9%)
Язык : Korean
ServiceKind/String : Complete Main
Default : Нет
Forced : Нет
ComplexityIndex : 16
NumberOfDynamicObjects : 15
BedChannelCount/String : 1 канал
BedChannelConfiguration : LFE
Текст #1
Идентификатор : 5
Формат : UTF-8
Идентификатор кодека : S_TEXT/UTF8
Идентификатор кодека/Информация : UTF-8 Plain Text
Продолжительность : 51 м. 27 с.
Битрейт : 45 бит/сек
ElementCount : 399
Размер потока : 17,0 Кбайт (0%)
Язык : Russian
Default : Да
Forced : Нет
Текст #2
Идентификатор : 6
Формат : UTF-8
Идентификатор кодека : S_TEXT/UTF8
Идентификатор кодека/Информация : UTF-8 Plain Text
Продолжительность : 51 м. 12 с.
Битрейт : 40 бит/сек
ElementCount : 600
Размер потока : 15,1 Кбайт (0%)
Заголовок : SDH
Язык : English
Default : Нет
Forced : Нет
Текст #3
Идентификатор : 7
Формат : UTF-8
Идентификатор кодека : S_TEXT/UTF8
Идентификатор кодека/Информация : UTF-8 Plain Text
Продолжительность : 51 м. 12 с.
Битрейт : 31 бит/сек
ElementCount : 393
Размер потока : 12,0 Кбайт (0%)
Язык : English
Default : Нет
Forced : Нет
Меню
00:03:19.219 : en:Intro start
00:04:38.257 : en:Intro end

Знаете ли вы, что…

  • Сериал основан на веб-комиксе "Страна бога" («Sinui nara").
  • Действие сериала происходит примерно в XV-XVI вв. альтернативной истории.
  • Главная роль была предложена Сон Джун-ги, но он отклонил предложение.
  • 16 января 2018 года один из членов художественной группы умер от переутомления на работе.
  • Является вторым южнокорейским сериалом, заказанным стрим-сервисом Netflix, но первым выпущенным.
  • Актёры, исполнившие роли зомби, проходили специальную подготовку в течение двух месяцев.
  • -Скриншоты:
    

    Смотреть онлайн

    [trackeroc.org].32592.torrent  Магнет ссылка
    Torrent: Registered   [ 2021-03-01 09:07 ]

    Скачать торрент

    77 KB

    Status: checked
    Completed: 44 times
    Size: 29.74 GB
     

    trackeroc.org (01-мар-21)

    Similar torrent
    Forum Topic Author Size
    Защита башен, Tower Defense Kingdom Rush: Anthology (2014-2020) PC | Лицензия www.trackeroc.ru 1.95 GB
    Защита башен, Tower Defense Kingdom Rush Vengeance - Tower Defense-PLAZA trackeroc.org 651 MB
    RPG, ролевые игры KINGDOM HEARTS HD 2.8 Final Chapter Prologue (2021) (ENG) www.trackeroc.ru 26.15 GB
    RPG, ролевые игры Kingdom Hearts III (3) and Re Mind [L] [ENG + 7 / ENG + JAP] (2021) www.trackeroc.ru 65.3 GB
    Arcade, Аркады, Платформеры KINGDOM HEARTS Melody of Memory [P] [ENG + 9 / ENG + JPN] (2021) www.trackeroc.ru 7.82 GB

    _________________
    [Profile] [PM]
    Display posts from previous:    
    Reply to topic

    The time now is: Today 21:57

    All times are GMT + 4 Hours



    You cannot post new topics in this forum
    You cannot reply to topics in this forum
    You cannot edit your posts in this forum
    You cannot delete your posts in this forum
    You cannot vote in polls in this forum
    You cannot attach files in this forum
    You can download files in this forum