Ловушка разума / The Wave (2019) BDRip [H.264/720р] скачать торрент

Reply to topic

DL-List and Torrent activity [Update пиров]
Size:  3.47 GB   |    Registered:  19 days   |    Completed:  0 times

Seeder not seen: Never

 
 
 
 
 
Author Message

Captain ®

Longevity: 6 years 5 months

Posts: 2557

Location: Earth


Post 08-Sep-2020 18:29

[Quote]

Ловушка разума / The Wave - Производство: США, EchoWolf Productions
Жанр: Фантастика, Триллер
Режиссер: Гилле Клабин
Продюсер: Джошуа Бантинг, Гилле Клабин, Карл Лукас
Актеры: Джастин Лонг, Томми Флэнаган, Катя Винтер, Дональд Фэйзон, Шейла Ванд, Сара Минник, Билл Сейдж, Моник Канделария, Ронни Джин Блевинс, Блайт Ховард
Описание:
Юрист крупной страховой компании по имени Фрэнк находит лазейку, как не платить пострадавшему клиенту 4 млн. долларов. Завтра у него большой день - нужно презентовать находку начальству, что, скорее всего, приведёт к повышению. А сегодня, передумав коротать вечер дома со скучной женой, Фрэнк принимает приглашение друга и отправляется на ночную тусовку. Друзья знакомятся с двумя симпатичными девушками, и вот уже один подозрительного вида тип предлагает Фрэнку особое средство. Наш герой делает роковой выбор и тут же приходит в себя в пустой квартире. Вечеринка кончилась, друзья и бумажник пропали, а через 2 часа у Фрэнка назначена важная встреча. Бросившись домой, он замечает, что со временем происходит что-то очень странное.

Рейтинг MPAA: R (лицам до 17 лет обязательно присутствие взрослого)
Дата мировой премьеры: 7 декабря 2019
Дата российской премьеры: 25 июня 2020, «Кинологистика»
Цифровой релиз: 14 мая 2020, «Кинологистика»
Продолжительность: 01:27:27
Качество видео: BDRip
Перевод: Дублированный (iTunes)
Субтитры: Русские (Full),Английские (Full, SDH)
Видео: AVC/H.264, 1280x536, ~4659 kbps
Аудио 1: AC3, 6 ch, 384 kbps - Русский
Аудио 2: AC3, 6 ch, 640 kbps - Английский

MediaInfo:

Код:
General
Complete name : The.Wave.2019.BDRip.720p.seleZen.mkv
Format : Matroska
Format version : Version 4
File size : 3.47 GiB
Duration : 1 h 27 min
Overall bit rate : 5 679 kb/s
Movie name : The Wave 2019 from селезень
Encoded date : UTC 2020-09-08 10:05:40
Writing application : mkvmerge v40.0.0 ('Old Town Road + Pony') 64-bit
Writing library : libebml v1.3.9 + libmatroska v1.5.2
Video
ID : 1
Format : AVC
Format/Info : Advanced Video Codec
Format profile : [email protected]
Format settings : CABAC / 12 Ref Frames
Format settings, CABAC : Yes
Format settings, Reference : 12 frames
Codec ID : V_MPEG4/ISO/AVC
Duration : 1 h 27 min
Bit rate : 4 659 kb/s
Width : 1 280 pixels
Height : 536 pixels
Display aspect ratio : 2.40:1
Frame rate mode : Constant
Frame rate : 23.976 (24000/1001) FPS
Color space : YUV
Chroma subsampling : 4:2:0
Bit depth : 8 bits
Scan type : Progressive
Bits/(Pixel*Frame) : 0.283
Stream size : 2.84 GiB (82%)
Title : Encoded by seleZen
Writing library : x264 core 148 r2705kMod 3f5ed56
Encoding settings : cabac=1 / ref=12 / deblock=1:-2:-2 / analyse=0x3:0x133 / me=umh / subme=10 / psy=1 / fade_compensate=0.00 / psy_rd=1.00:0.00 / mixed_ref=1 / me_range=32 / chroma_me=1 / trellis=2 / 8x8dct=1 / cqm=0 / deadzone=21,11 / fast_pskip=0 / chroma_qp_offset=-2 / threads=17 / lookahead_threads=2 / sliced_threads=0 / nr=0 / decimate=0 / interlaced=0 / bluray_compat=0 / constrained_intra=0 / fgo=0 / bframes=9 / b_pyramid=2 / b_adapt=2 / b_bias=0 / direct=3 / weightb=1 / open_gop=0 / weightp=2 / keyint=240 / keyint_min=23 / scenecut=40 / intra_refresh=0 / rc_lookahead=50 / rc=2pass / mbtree=0 / bitrate=4659 / ratetol=1.0 / qcomp=0.60 / qpmin=0 / qpmax=51 / qpstep=4 / cplxblur=20.0 / qblur=0.5 / vbv_maxrate=50000 / vbv_bufsize=62500 / nal_hrd=none / filler=0 / ip_ratio=1.40 / pb_ratio=1.30 / aq=3:0.80
Language : English
Default : Yes
Forced : No
Audio #1
ID : 2
Format : AC-3
Format/Info : Audio Coding 3
Commercial name : Dolby Digital
Codec ID : A_AC3
Duration : 1 h 27 min
Bit rate mode : Constant
Bit rate : 384 kb/s
Channel(s) : 6 channels
Channel layout : L R C LFE Ls Rs
Sampling rate : 48.0 kHz
Frame rate : 31.250 FPS (1536 SPF)
Compression mode : Lossy
Stream size : 240 MiB (7%)
Title : iTunes
Language : Russian
Service kind : Complete Main
Default : Yes
Forced : Yes
Audio #2
ID : 3
Format : AC-3
Format/Info : Audio Coding 3
Commercial name : Dolby Digital
Codec ID : A_AC3
Duration : 1 h 27 min
Bit rate mode : Constant
Bit rate : 640 kb/s
Channel(s) : 6 channels
Channel layout : L R C LFE Ls Rs
Sampling rate : 48.0 kHz
Frame rate : 31.250 FPS (1536 SPF)
Compression mode : Lossy
Stream size : 400 MiB (11%)
Title : Original
Language : English
Service kind : Complete Main
Default : No
Forced : No
Text #1
ID : 4
Format : UTF-8
Codec ID : S_TEXT/UTF8
Codec ID/Info : UTF-8 Plain Text
Duration : 1 h 24 min
Bit rate : 108 b/s
Count of elements : 1183
Stream size : 67.0 KiB (0%)
Title : Full
Language : Russian
Default : No
Forced : No
Text #2
ID : 5
Format : UTF-8
Codec ID : S_TEXT/UTF8
Codec ID/Info : UTF-8 Plain Text
Duration : 1 h 22 min
Bit rate : 85 b/s
Count of elements : 1677
Stream size : 51.5 KiB (0%)
Title : Full
Language : English
Default : No
Forced : No
Text #3
ID : 6
Format : UTF-8
Codec ID : S_TEXT/UTF8
Codec ID/Info : UTF-8 Plain Text
Duration : 1 h 22 min
Bit rate : 91 b/s
Count of elements : 1880
Stream size : 55.4 KiB (0%)
Title : SDH
Language : English
Default : No
Forced : No
Menu
00:00:00.000 : en:00:00:00.000
00:06:46.197 : en:00:06:46.197
00:14:18.066 : en:00:14:18.066
00:21:28.704 : en:00:21:28.704
00:29:20.926 : en:00:29:20.926
00:34:51.506 : en:00:34:51.506
00:42:19.620 : en:00:42:19.620
00:49:51.780 : en:00:49:51.780
00:53:46.598 : en:00:53:46.598
01:03:27.303 : en:01:03:27.303
01:10:12.750 : en:01:10:12.750
01:17:09.291 : en:01:17:09.291
-Скриншоты:


Смотреть онлайн

[trackeroc.org].31778.torrent  Магнет ссылка
Torrent: Registered   [ 2020-09-08 18:29 ]

Скачать торрент

18 KB

Status: checked
Completed: 6 times
Size: 3.47 GB
 

Admin (08-сен-20)

Similar torrent
Forum Topic Author Size
Квесты, я ищу, Поиск предметов, Hidden Object Mindframe: The Secret Design / Чертоги разума. Секретный проект. [RUS / ENG] (2020) trackeroc.org 674 MB
Квесты, я ищу, Поиск предметов, Hidden Object The Andersen Accounts 3: A Voice of Reason / Досье Андерсена 3: Голос разума [RUS / ENG] (2019) Admin 938 MB
Фантастика ,Фэнтези Ловушка для привидения / Gespensterjager (2015) HDRip [H.264] Captain 1.51 GB
Квесты, я ищу, Поиск предметов, Hidden Object Mountain Trap 2: Under The Cloak Of Fear / Горная Ловушка 2: Под Покровом Страха [P] [RUS / ENG] (2016) HOPE 589 MB

_________________
[Profile] [PM]
Display posts from previous:    
Reply to topic

The time now is: Today 02:41

All times are GMT + 4 Hours



You cannot post new topics in this forum
You cannot reply to topics in this forum
You cannot edit your posts in this forum
You cannot delete your posts in this forum
You cannot vote in polls in this forum
You cannot attach files in this forum
You can download files in this forum