Малефисента / Maleficent (2014) BDRip скачать торрент

Reply to topic

DL-List and Torrent activity [Update пиров]
Size:  1.46 GB   |    Registered:  1 month 18 days   |    Completed:  0 times
Seeders:  1  [  15 KB/s  ]   Show peers in full details
 
 
 
 
Author Message

BiOS ®

Longevity: 5 years 10 months

Posts: 2419

Location: Earth


Post 31-Dec-2019 04:58

[Quote]

Малефисента / Maleficent
«Не верьте сказкам»
- Производство: США, Великобритания / Roth Films, Walt Disney Pictures
Жанр: Фэнтези, приключения, семейный
Режиссер: Роберт Стромберг
Актеры: Анджелина Джоли, Эль Фаннинг, Шарлто Копли, Сэм Райли, Имелда Стонтон, Джуно Темпл, Лесли Мэнвилл, Брентон Туэйтс, Кеннет Крэнэм, Изобель Моллой
Описание:
Юная волшебница Малефисента вела уединенную жизнь в зачарованном лесу, окруженная сказочными существами, но однажды все изменилось… В её мир вторглись люди, которые принесли с собой разрушение и хаос, и Малефисенте пришлось встать на защиту своих подданных, призвав на помощь могущественные тёмные силы. В пылу борьбы Малефисента наложила страшное заклятие на новорожденную дочь короля, прекрасную Аврору. Но, наблюдая за тем, как растет маленькая принцесса, Малефисента начинает сомневаться в правильности своего поступка — ведь, возможно, именно Аврора может вдохнуть новую жизнь в волшебное лесное царство.

Возраст: 12+ (зрителям, достигшим 12 лет)
Рейтинг MPAA: PG (рекомендуется присутствие родителей)
Дата мировой премьеры: 28 мая 2014
Дата премьеры в России: 29 мая 2014

Продолжительность: 01:37:28
Качество видео: BDRip
Перевод: Дублированный (iTunes)
Субтитры: Отсутствуют
Видео: XviD, 720x304, ~1690 Kbps
Аудио: AC-3, 5/1, 448 Kbps

MediaInfo:

General
Complete name : Малефисента Maleficent (2014).avi
Format : AVI
Format/Info : Audio Video Interleave
File size : 1.46 GiB
Duration : 1h 37mn
Overall bit rate : 2 148 Kbps
Writing application : VirtualDubModRus 1.5.10.2 (build 2542/release)
Writing library : VirtualDubMod build 2542/release
Video
ID : 0
Format : MPEG-4 Visual
Format profile : Advanced [email protected]
Format settings, BVOP : Yes
Format settings, QPel : No
Format settings, GMC : No warppoints
Format settings, Matrix : Custom
Codec ID : XVID
Codec ID/Hint : XviD
Duration : 1h 37mn
Bit rate : 1 690 Kbps
Width : 720 pixels
Height : 304 pixels
Display aspect ratio : 2.35:1
Frame rate : 23.976 fps
Color space : YUV
Chroma subsampling : 4:2:0
Bit depth : 8 bits
Scan type : Progressive
Compression mode : Lossy
Bits/(Pixel*Frame) : 0.322
Stream size : 1.15 GiB (79%)
Writing library : XviD 73
Audio
ID : 1
Format : AC-3
Format/Info : Audio Coding 3
Mode extension : CM (complete main)
Format settings, Endianness : Big
Codec ID : 2000
Duration : 1h 37mn
Bit rate mode : Constant
Bit rate : 448 Kbps
Channel(s) : 6 channels
Channel positions : Front: L C R, Side: L R, LFE
Sampling rate : 48.0 KHz
Bit depth : 16 bits
Compression mode : Lossy
Stream size : 312 MiB (21%)
Alignment : Split accross interleaves
Interleave, duration : 42 ms (1.00 video frame)
Interleave, preload duration : 500 ms
-Скриншоты:


Смотреть онлайн


[trackeroc.org].29711.torrent 
Torrent: Registered   [ 2019-12-31 04:58 ]

Скачать торрент

15 KB

Status: checked
Completed: 2 times
Size: 1.46 GB
 

Admin (31-дек-19)
Similar torrent
Forum Topic Author Size
Фантастика ,Фэнтези Малефисента: Владычица тьмы / Maleficent: Mistress of Evil (2019) WEB-DLRip BiOS 1.47 GB

_________________
[Profile] [PM]
Display posts from previous:    
Reply to topic

The time now is: Today 16:57

All times are GMT + 4 Hours



You cannot post new topics in this forum
You cannot reply to topics in this forum
You cannot edit your posts in this forum
You cannot delete your posts in this forum
You cannot vote in polls in this forum
You cannot attach files in this forum
You can download files in this forum