Метод (2015) HDTVRip (сезон 1, серии 1-16 из 16) скачать торрент

Reply to topic

DL-List and Torrent activity [Update пиров]
Size:  10.16 GB   |    Registered:  17 days   |    Completed:  0 times
Seeders:  7  [  196 KB/s  ]   Leechers:  3  [  20 MB/s  ]   Show peers in full details
 
 
 
 
Author Message

Moder ®

Longevity: 6 years 7 months

Posts: 2538

Location: Earth


Post 10-Nov-2020 08:35

[Quote]

МЕТОД - Производство: Россия / Продюсерская компания «Среда»
Жанр: триллер, криминал, драма
Режиссер: Юрий Быков
Актеры: Константин Хабенский, Паулина Андреева, Виталий Кищенко, Александр Цекало, Екатерина Дубакина, Александр Петров, Тимофей Трибунцев, Игорь Савочкин, Алексей Серебряков, Юрий Колокольников, Юрий Быков, Ян Цапник, Захар Кабанов и др.
Описание:
Главная героиня Есеня хочет после окончания института работать с Родионом Меглиным — загадочным, скрытным, следователем-одиночкой с невероятной раскрываемостью дел разнообразных маньяков. Каков его метод, никто не знает. Есеня, попав к нему в стажеры, начинает понимать, что суть метода в том, что Меглин сам — маньяк. Он ИХ чувствует. Ему разрешено ликвидировать одних, другим сохранять жизнь и присматривать за ними. Любовь, которой не суждено случиться, на фоне ужасающих преступлений самых страшных маньяков последних десятилетий в нашей стране.

Дата российской премьеры: 18 октября 2015
Продолжительность: ~ 00:46:00 серия
Качество видео: HDTVRip
Видео: XviD, 720х400 (16:9), ~1549 Kbps
Аудио: AC3, 48 kHz, 2 ch, 192 kbps

MediaInfo:

Код:
Общее
Формат                                   : AVI
Формат/Информация                        : Audio Video Interleave
Размер файла                             : 584 Мбайт
Продолжительность                        : 46 м.
Общий поток                              : 1751 Кбит/сек
Программа кодирования                    : VirtualDubMod 1.5.10.3 | (build 2550/release)
Библиотека кодирования                   : VirtualDubMod build 2550/release
Видео
Идентификатор                            : 0
Формат                                   : MPEG-4 Visual
Профиль формата                          : Advanced [email protected]
Параметр BVOP формата                    : 1
Параметр QPel формата                    : Нет
Параметр GMC формата                     : Без точки перехода
Параметр матрицы формата                 : Выборочная
Идентификатор кодека                     : XVID
Идентификатор кодека/Подсказка           : XviD
Продолжительность                        : 46 м.
Битрейт                                  : 1549 Кбит/сек
Ширина                                   : 720 пикселей
Высота                                   : 400 пикселей
Соотношение сторон                       : 16:9
Частота кадров                           : 25,000 кадров/сек
Цветовое пространство                    : YUV
Субдискретизация насыщенности            : 4:2:0
Битовая глубина                          : 8 бит
Тип развёртки                            : Прогрессивная
Метод сжатия                             : С потерями
Бит/(Пиксели*Кадры)                      : 0.215
Размер потока                            : 517 Мбайт (88%)
Библиотека кодирования                   : XviD 73
Аудио
Идентификатор                            : 1
Формат                                   : AC-3
Формат/Информация                        : Audio Coding 3
Расширение режима                        : CM (complete main)
Параметр Endianness формата              : Big
Идентификатор кодека                     : 2000
Продолжительность                        : 46 м.
Вид битрейта                             : Постоянный
Битрейт                                  : 192 Кбит/сек
Каналы                                   : 2 канала
Расположение каналов                     : Front: L R
Частота                                  : 48,0 КГц
Метод сжатия                             : С потерями
Размер потока                            : 64,0 Мбайт (11%)
Выравнивание                             : Разделение по промежуткам
Продолжительность промежутка             : 40  мс. (1,00 видеокадр)
Время предзагрузки промежутка            : 500  мс.
-Скриншоты:


Смотреть онлайн

[trackeroc.org].32168.torrent  Магнет ссылка
Torrent: Registered   [ 2020-11-10 08:35 ]

Скачать торрент

52 KB

Status: checked
Completed: 64 times
Size: 10.16 GB
 

trackeroc.org (10-ноя-20)

Similar torrent
Forum Topic Author Size
Отечественные Мультсериалы Малышарики (2015-2020) (сезон 1-4, серии 1-170 из 208) Admin 32.06 GB
XBox 360 | Игры Resident Evil: Revelations 2 (2015) [Region Free][RUS][L] (XGD3) (LT+ 3.0) [Xbox360] Moder 8.14 GB
Инди игры ADOM / Ancient Domains Of Mystery (v3.3.4.1) (2015) (ENG) Admin 638 MB
Simulator SimplePlanes PC (v1.10.106.0) [ENG] (2015) GOG Admin 321 MB

_________________
[Profile] [PM]
Display posts from previous:    
Reply to topic

The time now is: Today 08:57

All times are GMT + 4 Hours



You cannot post new topics in this forum
You cannot reply to topics in this forum
You cannot edit your posts in this forum
You cannot delete your posts in this forum
You cannot vote in polls in this forum
You cannot attach files in this forum
You can download files in this forum