Мир Юрского периода: Лагерь Мелового периода / Jurassic World: Camp Cretaceous (2020) WEB-DL (сезон 1, серии 1-8 из 8) Невафильм скачать торрент

Reply to topic


DL-List and Torrent activity [Update пиров]
Size:  8.85 GB   |    Registered:  1 year 1 month   |    Completed:  3 times
Seeders:  16  [  270 KB/s  ]   Leechers:  10  [  10 MB/s  ]   Show peers in full details
 
 
 
 
Author Message

trackeroc.org ®

Longevity: 1 year 3 months

Posts: 910

Location: ttrackeroc.ru trackeroc.org trackeroc.info trackeroc.site trackeroc.ml trackeroc.ga trackeroc.space


Post 19-Sep-2020 12:19

[Quote]

Мир Юрского периода: Лагерь Мелового периода / Jurassic World: Camp Cretaceous - Производство: США / Amblin Entertainment, DreamWorks Animation, Legendary Television, The Kennedy/Marshall Company, Universal Pictures, Netflix
Жанр: Анимационный мультфильм, Детский, Приключения, Семейный
Сценарий: Зак Стенц, Ник Джонс мл.
Режиссер: Зесун Кан, Майкл Маллен, Лэйн Луэрас, Эрик Элрод, Дэн Риба
Актеры: Пол-Микель Уильямс, Каусар Мохаммед, Дженна Ортега, Райан Поттер, Рейни Родригес, Роджер Крэйг Смит, Бенжамин Флорес мл., Грег Чун, Кестон Джон, Скотт Кример, Секунда Смит, Джеймс Арнольд Тейлор, Шон Джамброун, Джефф Бергман, Фил Букман
Описание:
Шестеро подростков весело проводят время на острове Нублар, рассматривая диплодоков и бегая по веревочным лестницам. Однако, в парке все клетки оказываются открыты, так что подросткам придётся научиться выживать.

Дата мировой премьеры: 18 сентября 2020
Продолжительность: 00:24:18
Качество видео: WEB-DL
Перевод: Дублированный [Невафильм]
Субтитры: Русские, Английские
Видео: 1920x1080 (16:9), 23.976 fps, AVC, 6 417 Kbps
Аудио #1: AC3+, 640 Kbps, 48.0 KHz, 6 ch [Rus]
Аудио #2: AC3+, 640 Kbps, 48.0 KHz, 6 ch [Eng]

MediaInfo:

General
Unique ID : 224567114671045196110909145375397910491 (0xA8F20D95CBDD2C5BEEED6477324017DB)
Complete name : Jurassic.World.Camp.Cretaceous.S01E01.Camp.Cretaceous.1080p.NF.WEB-DL.mkv
Format : Matroska
Format version : Version 4 / Version 2
File size : 1.33 GiB
Duration : 24mn 18s
Overall bit rate mode : Variable
Overall bit rate : 7 853 Kbps
Encoded date : UTC 2020-09-19 05:30:19
Writing application : mkvmerge v49.0.0 ('Sick Of Losing Soulmates') 64-bit
Writing library : libebml v1.4.0 + libmatroska v1.6.1
DURATION : 00:22:34.394000000
NUMBER_OF_FRAMES : 261
NUMBER_OF_BYTES : 13563
_STATISTICS_WRITING_APP : mkvmerge v49.0.0 ('Sick Of Losing Soulmates') 64-bit
_STATISTICS_WRITING_DATE_UTC : 2020-09-19 05:30:19
_STATISTICS_TAGS : BPS DURATION NUMBER_OF_FRAMES NUMBER_OF_BYTES
Video
ID : 1
Format : AVC
Format/Info : Advanced Video Codec
Format profile : [email protected]
Format settings, CABAC : Yes
Format settings, ReFrames : 3 frames
Codec ID : V_MPEG4/ISO/AVC
Bit rate mode : Variable
Bit rate : 6 417 Kbps
Nominal bit rate : 6 810 Kbps
Maximum bit rate : 10.2 Mbps
Width : 1 920 pixels
Height : 1 080 pixels
Display aspect ratio : 16:9
Frame rate mode : Variable
Original frame rate : 23.976 fps
Color space : YUV
Chroma subsampling : 4:2:0
Bit depth : 8 bits
Scan type : Progressive
Bits/(Pixel*Frame) : 0.137
Writing library : x264 core 148 r2722 1b0121b
Encoding settings : cabac=1 / ref=3 / deblock=1:0:0 / analyse=0x1:0x111 / me=umh / subme=10 / psy=1 / psy_rd=1.00:0.00 / mixed_ref=1 / me_range=24 / chroma_me=1 / trellis=2 / 8x8dct=0 / cqm=0 / deadzone=21,11 / fast_pskip=1 / chroma_qp_offset=-2 / threads=6 / lookahead_threads=1 / sliced_threads=0 / nr=0 / decimate=1 / interlaced=0 / bluray_compat=0 / stitchable=1 / constrained_intra=0 / bframes=2 / b_pyramid=0 / b_adapt=2 / b_bias=0 / direct=3 / weightb=1 / open_gop=0 / weightp=2 / keyint=250 / keyint_min=23 / scenecut=0 / intra_refresh=0 / rc_lookahead=48 / rc=2pass / mbtree=1 / bitrate=6810 / ratetol=1.0 / qcomp=0.50 / qpmin=6 / qpmax=51 / qpstep=4 / cplxblur=20.0 / qblur=0.5 / vbv_maxrate=10215 / vbv_bufsize=13620 / nal_hrd=vbr / filler=0 / ip_ratio=1.40 / aq=1:1.00
Default : Yes
Forced : No
Audio #1
ID : 2
Format : E-AC-3
Format/Info : Audio Coding 3
Format settings, Endianness : Big
Codec ID : A_EAC3
Duration : 24mn 18s
Bit rate mode : Constant
Bit rate : 640 Kbps
Channel(s) : 6 channels
Channel positions : Front: L C R, Side: L R, LFE
Sampling rate : 48.0 KHz
Compression mode : Lossy
Stream size : 111 MiB (8%)
Title : Russian
Language : Russian
Default : No
Forced : No
Audio #2
ID : 3
Format : E-AC-3
Format/Info : Audio Coding 3
Format settings, Endianness : Big
Codec ID : A_EAC3
Duration : 24mn 18s
Bit rate mode : Constant
Bit rate : 640 Kbps
Channel(s) : 6 channels
Channel positions : Front: L C R, Side: L R, LFE
Sampling rate : 48.0 KHz
Compression mode : Lossy
Stream size : 111 MiB (8%)
Title : English
Language : English
Default : No
Forced : No
Text #1
ID : 4
Format : UTF-8
Codec ID : S_TEXT/UTF8
Codec ID/Info : UTF-8 Plain Text
Title : Russian
Language : Russian
Default : No
Forced : No
Text #2
ID : 5
Format : UTF-8
Codec ID : S_TEXT/UTF8
Codec ID/Info : UTF-8 Plain Text
Title : English
Language : English
Default : No
Forced : No
Скриншоты:


Смотреть онлайн

[trackeroc.org].31864.torrent  Магнет ссылка
Torrent: Registered   [ 2020-09-19 12:19 ]

Скачать торрент

24 KB

Status: checked
Completed: 234 times
Size: 8.85 GB
 

Pro100Moder (19-сен-20)

Similar torrent
Forum Topic Author Size
Зарубежные Мультсериалы Мир Юрского периода: Лагерь Мелового периода / Jurassic World: Camp Cretaceous [Сезон 3] (2021) WEB-DL 1080p | Невафильм trackeroc.info 8.06 GB
Зарубежные Мультсериалы Мир Юрского периода: Лагерь Мелового периода / Jurassic World: Camp Cretaceous [сезон 2] (2021) WEB-DL 1080p | Невафильм trackeroc.info 8.13 GB
Фантастика ,Фэнтези Парк Юрского периода / Jurassic Park (1993-2018) BDRip [Коллекция] Pro100Moder 7.37 GB
Документальные ,Трейлеры Мамонты: Гиганты ледникового периода / Mammoths. Giants of the Ace (2014) WEB-DL [H.264/1080p] trackeroc.info 3.53 GB
[Profile] [PM]
Display posts from previous:    
Reply to topic

The time now is: Today 11:34

All times are GMT + 4 Hours



You cannot post new topics in this forum
You cannot reply to topics in this forum
You cannot edit your posts in this forum
You cannot delete your posts in this forum
You cannot vote in polls in this forum
You cannot attach files in this forum
You can download files in this forum