Нарко: Мексика / Narcos: Mexico / Сезон: 3 / Серии: 1-10 из 10 скачать торрент

Reply to topic


DL-List and Torrent activity [Update пиров]
Size:  9.39 GB   |    Registered:  14 days   |    Completed:  0 times
Seeders:  4  [  79 KB/s  ]   Leechers:  5  [  7 MB/s  ]   Show peers in full details
 
 
 
 
Author Message

trackeroc.info ®

Longevity: 7 years 7 months

Posts: 10870

Location: trackeroc.org trackeroc.info trackeroc.ml trackeroc.ga trackeroc.space


Post 24-Nov-2021 11:31

[Quote]

Нарко: Мексика | Narcos: Mexico- Год выпуска: 2021
Страна: Мексика, США
Жанр: Драма, криминал
Продолжительность: ~ 00:56:00
Перевод: Профессиональный (многоголосый закадровый) TVShows--Режиссёр: Андрес Байс, Амат Эскаланте, Алонсо Руис Палашиос
В ролях: Диего Луна, Скут МакНэри, Алехандро Эдда, Тереса Руис, Хосе Мария Яспик, Фермин Мартинес, Альфонсо Досаль, Кларк Фриман, Майкл Пенья, Хоакин Косио и др.-Описание: В 1980-х годах Феликс Галлардо решил объединить разрозненных и независимых производителей и дилеров наркотиков Мексики и построить собственную криминальную империю. В это же время агент Управления по борьбе с наркотиками Кики Камарена, получив повышение, переезжает с женой и маленьким сыном из Калифорнии в Гвадалахару. На новом месте он сталкивается с сильнейшим противником, и их противостояние затягивается на долгие годы.--
Качество: WEB-DLRip
Формат: AVI
Видео: XVID, 704x352, 23.976 fps, ~2000 kbps avg, 0.33 bit/pixel
Аудио Rus: AC3, 48.0 KHz, 6 channels, 384 kbps
Субтитры: отсутствуют
Реклама отсутствует

MediaInfo

Общее
Полное имя : G:\Нарко. Мексика (Сезон 3) TVShows\Narcos.Mexico.S03E01.WEB-DLRip.RGzsRutracker.Celta88.avi
Формат : AVI
Формат/Информация : Audio Video Interleave
Размер файла : 1016 Мбайт
Продолжительность : 59 м. 23 с.
Общий поток : 2393 Кбит/сек
Программа кодирования : VirtualDubMod 1.5.10.3 | www.virtualdub-fr.org || (build 2550/release)
Библиотека кодирования : VirtualDubMod build 2550/release
Видео
Идентификатор : 0
Формат : MPEG-4 Visual
Профиль формата : Advanced [email protected]
Настройки формата : BVOP1 / Custom Matrix
Параметр BVOP формата : 1
Параметр QPel формата : Нет
Параметр GMC формата : Без точки перехода
Параметр матрицы формата : Выборочная
Идентификатор кодека : XVID
Идентификатор кодека/Подсказка : XviD
Продолжительность : 59 м. 23 с.
Битрейт : 2000 Кбит/сек
Ширина : 704 пикселя
Высота : 352 пикселя
Соотношение сторон : 2,000
Частота кадров : 23,976 (24000/1001) кадра/сек
Цветовое пространство : YUV
Субдискретизация насыщенности : 4:2:0
Битовая глубина : 8 бит
Тип развёртки : Прогрессивная
Метод сжатия : С потерями
Бит/(Пиксели*Кадры) : 0.337
Размер потока : 849 Мбайт (84%)
Библиотека кодирования : XviD 73
Аудио
Идентификатор : 1
Формат : AC-3
Формат/Информация : Audio Coding 3
Коммерческое название : Dolby Digital
Идентификатор кодека : 2000
Продолжительность : 59 м. 23 с.
Вид битрейта : Постоянный
Битрейт : 384 Кбит/сек
Каналы : 6 каналов
ChannelLayout : L R C LFE Ls Rs
Частота : 48,0 КГц
Частота кадров : 31,250 кадров/сек (1536 SPF)
Битовая глубина : 16 бит
Метод сжатия : С потерями
Размер потока : 163 Мбайт (16%)
Выравнивание : Разделение по промежуткам
Продолжительность промежутка : 42 мс. (1,00 видеокадр)
Время предзагрузки промежутка : 500 мс.
ServiceKind/String : Complete Main

Скриншоты

Внимание! Раздача ведётся путём добавления новых серий!

Внимание! Раздача ведётся путём добавления новых серий; при каждом добавлении создаётся новый торрент.
Чтобы начать докачку новой серии, пользователям необходимо сделать следующее:
1. Остановить скачивание.
2. Удалить старый торрент у себя из клиента (старые серии удалять не надо).
3. Скачать новый торрент и запустить его у себя в клиенте вместо старого, при этом указать клиенту путь в старую папку куда и должно происходить скачивание новых серий.
Ваш клиент при этом должен произвести хеширование (проверку) старой папки (если не производит сам - помогите ему сделать это), и будет докачивать только те серии которых у вас ещё нет. Старые серии при этом не удаляются, а продолжают раздаваться!
Eсли вы уже удалили старые серии, то предотвратить повторную закачку старых серий можно, отжав галочку в соответствующих местах при запуске нового торрента.


Смотреть онлайн

[trackeroc.org].33855.torrent  Магнет ссылка
Torrent: Registered   [ 2021-11-24 11:31 ]

Скачать торрент

48 KB

Status: checked
Completed: 71 times
Size: 9.39 GB
 

[Profile] [PM]
Display posts from previous:    
Reply to topic

The time now is: Today 08:47

All times are GMT + 4 Hours



You cannot post new topics in this forum
You cannot reply to topics in this forum
You cannot edit your posts in this forum
You cannot delete your posts in this forum
You cannot vote in polls in this forum
You cannot attach files in this forum
You can download files in this forum