Никто / Nobody (2021) WEB-DLRip [DVO] скачать торрент

Reply to topic


DL-List and Torrent activity [Update пиров]
Size:  1.46 GB   |    Registered:  19 days   |    Completed:  0 times
Seeders:  16  [  119 KB/s  ]   Leechers:  3  [  6 MB/s  ]   Show peers in full details
 
 
 
 
Author Message

Pro100Moder ®

Longevity: 7 years

Posts: 2549

Location: Earth


Post 18-Apr-2021 17:15

[Quote]

Никто / Nobody
«Не стоит его недооценивать»
- Производство: США, 87North, Dentsu, Eighty Two Films, Odenkirk Provissiero Entertainment, Perfect World (Beijing) Pictures Co.
Жанр: Боевик, Триллер, Криминал
Режиссер: Илья Найшуллер
Продюсер: Боб Оденкёрк, Марк Провиссьеро, Браден Афтегуд
Актеры: Боб Оденкёрк, Алексей Серебряков, Конни Нильсен, Кристофер Ллойд, Майкл Айронсайд, Колин Сэлмон, RZA, Билли Маклеллан, Арая Менгеша, Гейдж Манро, Александр Паль, Сергей Шнуров
Описание:
Непримечательный и незаметный человек живёт обычной жизнью, пока однажды, спасая женщину от нападения бандитов, не отправляет одного из хулиганов в больницу. Лишь позже он узнаёт, что это был брат влиятельного гангстера, который теперь жаждет мести.

Возраст: 18+ (зрителям, достигшим 18 лет. запрещено для детей)
Рейтинг MPAA: R (лицам до 17 лет обязательно присутствие взрослого)
Дата мировой премьеры: 18 марта 2021
Дата российской премьеры: 18 марта 2021, «UPI»
Продолжительность: 01:31:40
Качество видео: WEB-DLRip
Перевод: Двухголосый любительский (Pazl Voice)
Субтитры: Английские (хардсаб на русскую речь)
Внимание: Присутствует ненормативная лексика
Видео: XviD, 720х304, ~1881 kbps
Аудио »1: АС3, 2 ch, 192 kbps | Русский [Pazl Voice]
Аудио »2: АС3, 2 ch, 192 kbps | Английский

MediaInfo:

Общее
Полное имя : F:\[Anf]_Nobody_(2021)_WEB-DLRip.avi
Формат : AVI
Формат/Информация : Audio Video Interleave
Размер файла : 1,46 Гбайт
Продолжительность : 1 ч. 31 м.
Общий поток : 2 283 Кбит/сек
Видео
Идентификатор : 0
Формат : MPEG-4 Visual
Профиль формата : Advanced [email protected]
Настройки формата : BVOP1 / Custom Matrix
Параметр BVOP формата : 1
Параметр QPel формата : Нет
Параметр GMC формата : Без точки перехода
Параметр матрицы формата : Выборочная
Идентификатор кодека : XVID
Идентификатор кодека/Подсказка : XviD
Продолжительность : 1 ч. 31 м.
Битрейт : 1 881 Кбит/сек
Ширина : 720 пикселей
Высота : 304 пикселя
Соотношение сторон : 2,35:1
Частота кадров : 23,976 (24000/1001) кадра/сек
Цветовое пространство : YUV
Субдискретизация насыщенности : 4:2:0
Битовая глубина : 8 бит
Тип развёртки : Прогрессивная
Метод сжатия : С потерями
Бит/(Пиксели*Кадры) : 0.358
Размер потока : 1,20 Гбайт (82%)
Библиотека кодирования : XviD 69
Аудио #1
Идентификатор : 1
Формат : AC-3
Формат/Информация : Audio Coding 3
Коммерческое название : Dolby Digital
Идентификатор кодека : 2000
Продолжительность : 1 ч. 31 м.
Вид битрейта : Постоянный
Битрейт : 192 Кбит/сек
Каналы : 2 канала
Channel layout : L R
Частота : 48,0 КГц
Частота кадров : 31,250 кадров/сек (1536 SPF)
Битовая глубина : 16 бит
Метод сжатия : С потерями
Размер потока : 126 Мбайт (8%)
Выравнивание : Соединение по промежуткам
Продолжительность промежутка : 32 мс. (0,77 видеокадр)
Service kind : Complete Main
Аудио #2
Идентификатор : 2
Формат : AC-3
Формат/Информация : Audio Coding 3
Коммерческое название : Dolby Digital
Идентификатор кодека : 2000
Продолжительность : 1 ч. 31 м.
Вид битрейта : Постоянный
Битрейт : 192 Кбит/сек
Каналы : 2 канала
Channel layout : L R
Частота : 48,0 КГц
Частота кадров : 31,250 кадров/сек (1536 SPF)
Битовая глубина : 16 бит
Метод сжатия : С потерями
Размер потока : 126 Мбайт (8%)
Выравнивание : Соединение по промежуткам
Продолжительность промежутка : 32 мс. (0,77 видеокадр)
Service kind : Complete Main
-Скриншоты:


Смотреть онлайн

[trackeroc.org].32965.torrent  Магнет ссылка
Torrent: Registered   [ 2021-04-18 17:15 ]

Скачать торрент

15 KB

Status: checked
Completed: 69 times
Size: 1.46 GB
 

trackeroc.info (18-апр-21)


_________________
[Profile] [PM]
Display posts from previous:    
Reply to topic

The time now is: Today 05:50

All times are GMT + 4 Hours



You cannot post new topics in this forum
You cannot reply to topics in this forum
You cannot edit your posts in this forum
You cannot delete your posts in this forum
You cannot vote in polls in this forum
You cannot attach files in this forum
You can download files in this forum