Няня. Королева проклятых / The Babysitter: Killer Queen (2020) WEBRip [H.264.1080p-LQ] [DVO] [PR] скачать торрент

Reply to topic

DL-List and Torrent activity [Update пиров]
Size:  4.12 GB   |    Registered:  10 days   |    Completed:  0 times

Seeder not seen: Never

 
 
 
 
 
Author Message

Captain ®

Longevity: 6 years 5 months

Posts: 2546

Location: Earth


Post 11-Sep-2020 22:37

[Quote]

Няня. Королева проклятых / The Babysitter: Killer Queen- Производство: США / Boies / Schiller Film Group, Wonderland Sound and Vision
Жанр: Ужасы, комедия
Режиссер: МакДжи
Актеры: Джуда Льюис, Белла Торн, Лесли Бибб, Кен Марино, Эмили Элин Линд, Робби Амелл, Дженна Ортега, Хана Мэй Ли, Аманда Серни, Эндрю Бэчелор
Описание:
Через два года после победы Коула над сатанинским культом, который возглавляла его няня Би, парень пытается забыть произошедшее и сосредоточиться на выживании в старшей школе. Но когда старые враги неожиданно возвращаются, Коулу придётся снова противостоять силам зла.

Дата мировой премьеры: 10 сентября 2020
Продолжительность: 01:42:26
Качество видео: WEBRip
Перевод: Любительский двухголосый (OnisFilms)
Субтитры: Русские, английские
Видео: AVC/H.264, 1920x1080, ~4870 Kbps
Аудио #1: AC3, 2 ch, 192 Kbps - Русский
Аудио #2: E-AC3, 6 ch, 768 Kbps - Английский

MediaInfo:

Общее
Формат : Matroska
Версия формата : Version 4
Размер файла : 4,12 Гбайт
Продолжительность : 1 ч. 42 м.
Режим общего битрейта : Переменный
Общий поток : 5765 Кбит/сек
Название фильма : Няня. Королева проклятых / The Babysitter: Killer Queen (2020)
Дата кодирования : UTC 2020-09-10 20:04:28
Программа кодирования : mkvmerge v25.0.0 ('Prog Noir') 64-bit
Библиотека кодирования : libebml v1.3.6 + libmatroska v1.4.9
Видео
Идентификатор : 1
Формат : AVC
Формат/Информация : Advanced Video Codec
Профиль формата : [email protected]
Настройки формата : CABAC / 3 Ref Frames
Параметр CABAC формата : Да
Параметр RefFrames формата : 3 кадра
Идентификатор кодека : V_MPEG4/ISO/AVC
Продолжительность : 1 ч. 42 м.
Вид битрейта : Переменный
Битрейт : 4870 Кбит/сек
Максимальный битрейт : 7305 Кбит/сек
Ширина : 1920 пикселей
Высота : 1080 пикселей
Соотношение сторон : 16:9
Режим частоты кадров : Постоянный
Частота кадров : 24,000 кадра/сек
Цветовое пространство : YUV
Субдискретизация насыщенности : 4:2:0
Битовая глубина : 8 бит
Тип развёртки : Прогрессивная
Бит/(Пиксели*Кадры) : 0.098
Размер потока : 3,44 Гбайт (83%)
Заголовок : CMRG
Библиотека кодирования : x264 core 148 r2722 1b0121b
Настройки программы : cabac=1 / ref=3 / deblock=1:0:0 / analyse=0x1:0x111 / me=umh / subme=10 / psy=1 / psy_rd=1.00:0.00 / mixed_ref=1 / me_range=24 / chroma_me=1 / trellis=2 / 8x8dct=0 / cqm=0 / deadzone=21,11 / fast_pskip=1 / chroma_qp_offset=-2 / threads=6 / lookahead_threads=1 / sliced_threads=0 / nr=0 / decimate=1 / interlaced=0 / bluray_compat=0 / stitchable=1 / constrained_intra=0 / bframes=2 / b_pyramid=0 / b_adapt=2 / b_bias=0 / direct=3 / weightb=1 / open_gop=0 / weightp=2 / keyint=250 / keyint_min=24 / scenecut=0 / intra_refresh=0 / rc_lookahead=48 / rc=2pass / mbtree=1 / bitrate=4870 / ratetol=1.0 / qcomp=0.50 / qpmin=6 / qpmax=51 / qpstep=4 / cplxblur=20.0 / qblur=0.5 / vbv_maxrate=7305 / vbv_bufsize=9740 / nal_hrd=vbr / filler=0 / ip_ratio=1.40 / aq=1:1.00
Язык : English
Default : Да
Forced : Нет
Аудио #1
Идентификатор : 2
Формат : AC-3
Формат/Информация : Audio Coding 3
Коммерческое название : Dolby Digital
Идентификатор кодека : A_AC3
Продолжительность : 1 ч. 42 м.
Вид битрейта : Постоянный
Битрейт : 192 Кбит/сек
Каналы : 2 канала
ChannelLayout : L R
Частота : 48,0 КГц
Частота кадров : 31,250 кадров/сек (1536 SPF)
Метод сжатия : С потерями
Размер потока : 141 Мбайт (3%)
Заголовок : DVO | OnisFilms
Язык : Russian
ServiceKind/String : Complete Main
Default : Да
Forced : Нет
Аудио #2
Идентификатор : 3
Формат : E-AC-3 JOC
Формат/Информация : Enhanced AC-3 with Joint Object Coding
Коммерческое название : Dolby Digital Plus with Dolby Atmos
Идентификатор кодека : A_EAC3
Продолжительность : 1 ч. 42 м.
Вид битрейта : Постоянный
Битрейт : 768 Кбит/сек
Каналы : 6 каналов
ChannelLayout : L R C LFE Ls Rs
Частота : 48,0 КГц
Частота кадров : 31,250 кадров/сек (1536 SPF)
Метод сжатия : С потерями
Размер потока : 563 Мбайт (13%)
Заголовок : English
Язык : English
Текст #1
Идентификатор : 4
Формат : UTF-8
Идентификатор кодека : S_TEXT/UTF8
Идентификатор кодека/Информация : UTF-8 Plain Text
Продолжительность : 1 ч. 40 м.
Битрейт : 99 бит/сек
ElementCount : 1400
Размер потока : 72,8 Кбайт (0%)
Заголовок : Russian
Язык : Russian
Default : Нет
Forced : Нет
Текст #2
Идентификатор : 5
Формат : UTF-8
Идентификатор кодека : S_TEXT/UTF8
Идентификатор кодека/Информация : UTF-8 Plain Text
Продолжительность : 1 ч. 40 м.
Битрейт : 83 бит/сек
ElementCount : 1839
Размер потока : 60,9 Кбайт (0%)
Заголовок : English [CC]
Язык : English
Default : Нет
Forced : Нет
-Скриншоты:


Смотреть онлайн

[trackeroc.org].31806.torrent  Магнет ссылка
Torrent: Registered   [ 2020-09-11 22:37 ]

Скачать торрент

21 KB

Status: checked
Completed: 8 times
Size: 4.12 GB
 

trackeroc.org (11-сен-20)

Similar torrent
Forum Topic Author Size
Комедии Няня / The Babysitter (2017) BDRip Captain 1.46 GB
Комедии Няня / The Babysitter (2017) WEBRip [H.264/720p] [MVO] HDRezka studio Captain 2.93 GB
Сasual games, Тайм менеджмент Lost Artifacts 5: Frozen Queen / Кладоискатели 5. Снежная королева (2019) (RUS) Admin 165 MB
Квесты, я ищу, Поиск предметов, Hidden Object Redemption Cemetery 13: The Cursed Mark / Кладбище искупления 13: Клеймо проклятых. [RUS / ENG] (2019) Admin 921 MB

_________________
[Profile] [PM]
Display posts from previous:    
Reply to topic

The time now is: Today 14:19

All times are GMT + 4 Hours



You cannot post new topics in this forum
You cannot reply to topics in this forum
You cannot edit your posts in this forum
You cannot delete your posts in this forum
You cannot vote in polls in this forum
You cannot attach files in this forum
You can download files in this forum