Одна / Alone (2020) WEB-DLRip скачать торрент

Reply to topic

DL-List and Torrent activity [Update пиров]
Size:  1.45 GB   |    Registered:  1 month 5 days   |    Completed:  0 times

Seeder not seen: Never

 
 
 
 
 
Author Message

Captain ®

Longevity: 6 years 6 months

Posts: 2559

Location: Earth


Post 24-Sep-2020 04:14

[Quote]

Одна / Alone «Не верь глазам своим»- Производство: США / Broken Cage Studio, Lerfilm
Жанр: Триллер
Режиссер: Владислав Хесин
Актеры: Элизабет Арендс, Сара Энн, Альбина Кацман, Бэйли Коппола, Дэйн Мэйджорс, Кайл Дондлинджер, Грэхэм Дженкинс, Цезар Джеймс, Криста Аткинс, Сиркус-Шалевски
Описание:
История писательницы, ищущей мира и уединения в сельской местности в попытке оправиться от трагедии и закончить свою книгу. Однако, когда гостеприимный загородный дом превращается в настоящий ад, она вскоре понимает, что ее внутренние демоны — не худшая из ее проблем.

Возраст: 18+ (зрителям, достигшим 18 лет. запрещено для детей)
Дата мировой премьеры: 17 января 2020
Дата премьеры в России: 21 сентября 2020

Продолжительность: 01:20:18
Качество видео: WEB-DLRip
Перевод: Дублированный (iTunes)
Субтитры: Отсутствуют
Видео: XviD, 720x304, ~2200 Kbps
Аудио: AC-3, 6 ch, 384 Kbps

MediaInfo:

Общее
Полное имя : Alone.2020.WEB-DLRip.avi
Формат : AVI
Формат/Информация : Audio Video Interleave
Размер файла : 1,45 Гбайт
Продолжительность : 1 ч. 20 м.
Общий поток : 2593 Кбит/сек
Название фильма : Одна_2020_WEB-DLRip
Программа кодирования : VirtualDubMod 1.5.10.3 | www.virtualdub-fr.org || (build 2550/release)
Авторское право : порошков
Видео
Идентификатор : 0
Формат : MPEG-4 Visual
Профиль формата : Advanced [email protected]
Настройки формата : BVOP1 / Custom Matrix
Параметр BVOP формата : 1
Параметр QPel формата : Нет
Параметр GMC формата : Без точки перехода
Параметр матрицы формата : Выборочная
Идентификатор кодека : XVID
Идентификатор кодека/Подсказка : XviD
Продолжительность : 1 ч. 20 м.
Битрейт : 2200 Кбит/сек
Ширина : 720 пикселей
Высота : 304 пикселя
Соотношение сторон : 2,35:1
Частота кадров : 24,000 кадра/сек
Цветовое пространство : YUV
Субдискретизация насыщенности : 4:2:0
Битовая глубина : 8 бит
Тип развёртки : Прогрессивная
Метод сжатия : С потерями
Бит/(Пиксели*Кадры) : 0.419
Размер потока : 1,23 Гбайт (85%)
Библиотека кодирования : XviD 73
Аудио
Идентификатор : 1
Формат : AC-3
Формат/Информация : Audio Coding 3
Коммерческое название : Dolby Digital
Идентификатор кодека : 2000
Продолжительность : 1 ч. 20 м.
Вид битрейта : Постоянный
Битрейт : 384 Кбит/сек
Каналы : 6 каналов
ChannelLayout : L R C LFE Ls Rs
Частота : 48,0 КГц
Частота кадров : 31,250 кадров/сек (1536 SPF)
Метод сжатия : С потерями
Размер потока : 221 Мбайт (15%)
Выравнивание : Разделение по промежуткам
Продолжительность промежутка : 42 мс. (1,00 видеокадр)
Время предзагрузки промежутка : 500 мс.
ServiceKind/String : Complete Main
-Скриншоты:


Смотреть онлайн

[trackeroc.org].31900.torrent  Магнет ссылка
Torrent: Registered   [ 2020-09-24 04:14 ]

Скачать торрент

15 KB

Status: checked
Completed: 52 times
Size: 1.45 GB
 

trackeroc.org (24-сен-20)

Similar torrent
Forum Topic Author Size
Фантастика ,Фэнтези Небольшое привидение: Одна ночь в проклятом доме / Mostly Ghostly 3: One Night in Doom House (2016) WEB-DLRip Captain 1.37 GB
Российские сериалы Один день, одна ночь [серии 1-4 из 4] (Петр Амелин) [2015, Детектив, SATRip] Матвей 2.35 GB

_________________
[Profile] [PM]
Display posts from previous:    
Reply to topic

The time now is: Today 19:53

All times are GMT + 4 Hours



You cannot post new topics in this forum
You cannot reply to topics in this forum
You cannot edit your posts in this forum
You cannot delete your posts in this forum
You cannot vote in polls in this forum
You cannot attach files in this forum
You can download files in this forum