Особое мнение / Minority Report (2015) WEB-DLRip (сезон 1, серии 1-10 из 10) NewStudio скачать торрент

Reply to topic

DL-List and Torrent activity [Update пиров]
Size:  5.36 GB   |    Registered:  19 days   |    Completed:  0 times

Seeder not seen: Never

 
 
 
 
 
Author Message

Admin ®

Longevity: 6 years 5 months

Posts: 10105

Location: Скачать торрент


Post 17-Aug-2015 00:44

[Quote]

Особое мнение / Minority Report «They see the future. She stops the crime»- Производство: США / 20th Century Fox Television, Amblin Television, Paramount Television
Жанр: фантастика, драма
Режиссер: Марк Майлод
Актеры: Миган Гуд, Уилмер Вальдеррама, Ник Зано, Лаура Риган, Старк Сэндс, Коннор Филдинг, Ли Цзюнь Ли, Дэниэл Лондон, Тина Лиффорд, Эндрю Стюарт-Джонс и др.
Описание:
Спустя 10 лет после событий фильма один из трех Провидцев пытается вести «нормальную» человеческую жизнь, но по-прежнему преследуется видениями будущего, когда встречает детектива, преследуемую своим прошлым, которая может помочь найти предназначение его дару.

Дата мировой премьеры: 2015
Продолжительность: ~00:44:00 серия
Качество видео: WEB-DLRip
Перевод: Многоголосый закадровый, профессиональный - NewStudio
Автор перевода: Юля Мейер
Видео: XviD, 720x400 (16:9), ~1420 kb/s
Аудио Rus: MPEG Layer 3, 48,0 kHz, 2 ch, 128 kb/s — многоголосый закадровый
Аудио Eng: MPEG Layer 3, 48,0 kHz, 2 ch, 128 kb/s — оригинал

MediaInfo

Код:
Общее
Полное имя                               : Minority.Report.s01e01.WEBDLRip.NewStudio.TV.avi
Формат                                   : AVI
Формат/Информация                        : Audio Video Interleave
Размер файла                             : 550 Мбайт
Продолжительность                        : 45 м.
Общий поток                              : 1690 Кбит/сек
Программа кодирования                    : VirtualDubMod 1.5.10.2 (build 2540/release)
Библиотека кодирования                   : VirtualDubMod build 2540/release
Видео
Идентификатор                            : 0
Формат                                   : MPEG-4 Visual
Профиль формата                          : Advanced [email protected]
Параметр BVOP формата                    : 2
Параметр QPel формата                    : Нет
Параметр GMC формата                     : Без точки перехода
Параметр матрицы формата                 : Default (MPEG)
Идентификатор кодека                     : XVID
Идентификатор кодека/Подсказка           : XviD
Продолжительность                        : 45 м.
Битрейт                                  : 1420 Кбит/сек
Ширина                                   : 720 пикселей
Высота                                   : 400 пикселей
Соотношение сторон                       : 16:9
Частота кадров                           : 23,976 кадра/сек
Цветовое пространство                    : YUV
Субдискретизация насыщенности            : 4:2:0
Битовая глубина                          : 8 бит
Тип развёртки                            : Прогрессивная
Метод сжатия                             : С потерями
Бит/(Пиксели*Кадры)                      : 0.206
Размер потока                            : 462 Мбайт (84%)
Библиотека кодирования                   : XviD 73
Аудио #1
Идентификатор                            : 1
Формат                                   : MPEG Audio
Версия формата                           : Version 1
Профиль формата                          : Layer 3
Режим                                    : Joint stereo
Расширение режима                        : MS Stereo
Идентификатор кодека                     : 55
Идентификатор кодека/Подсказка           : MP3
Продолжительность                        : 45 м.
Вид битрейта                             : Постоянный
Битрейт                                  : 128 Кбит/сек
Каналы                                   : 2 канала
Частота                                  : 48,0 КГц
Метод сжатия                             : С потерями
Размер потока                            : 41,6 Мбайт (8%)
Выравнивание                             : Соединение по промежуткам
Продолжительность промежутка             : 42  мс. (1,00 видеокадр)
Время предзагрузки промежутка            : 504  мс.
Аудио #2
Идентификатор                            : 2
Формат                                   : MPEG Audio
Версия формата                           : Version 1
Профиль формата                          : Layer 3
Режим                                    : Joint stereo
Идентификатор кодека                     : 55
Идентификатор кодека/Подсказка           : MP3
Продолжительность                        : 45 м.
Вид битрейта                             : Постоянный
Битрейт                                  : 128 Кбит/сек
Каналы                                   : 2 канала
Частота                                  : 48,0 КГц
Метод сжатия                             : С потерями
Размер потока                            : 41,6 Мбайт (8%)
Выравнивание                             : Соединение по промежуткам
Продолжительность промежутка             : 42  мс. (1,00 видеокадр)
Время предзагрузки промежутка            : 504  мс.
Библиотека кодирования                   : LAME3.99r
Настройки программы                      : -m j -V 4 -q 2 -lowpass 17 -b 128

Список серий

01. Pilot / Пилотная серия
02. Mr. Nice Guy / Мистер Вежливость
03. Hawk-Eye / Соколиный глаз
04. Fredi / Фрэди
05. The Present / Настоящее
06. Fiddler's Neck / Остров Фиддлера
07. Honor Among Thieves / Воровская честь
08. The American Dream / Американская мечта
09. Memento Mori / Мементо Мори
10. Everybody Runs / Все бегут
-Скриншоты:


Смотреть онлайн

[trackeroc.org].7582.torrent  Магнет ссылка
Torrent: Registered   [ 2020-09-08 10:45 ]

Скачать торрент

28 KB

Status: checked
Completed: 82 times
Size: 5.36 GB
 

Captain (17-авг-15)

Similar torrent
Forum Topic Author Size
Фантастика ,Фэнтези Особое мнение / Minority Report (2002) WEB-DLRip [H.264] [Open Matte] Captain 3.58 GB
[Profile] [PM]
Display posts from previous:    
Reply to topic

The time now is: Today 03:12

All times are GMT + 4 Hours



You cannot post new topics in this forum
You cannot reply to topics in this forum
You cannot edit your posts in this forum
You cannot delete your posts in this forum
You cannot vote in polls in this forum
You cannot attach files in this forum
You can download files in this forum