Отряд Фокстрот / Фокстрот Шесть / Foxtrot Six (2019) WEB-DLRip скачать торрент

Reply to topic

DL-List and Torrent activity [Update пиров]
Size:  1.46 GB   |    Registered:  16 days   |    Completed:  0 times

Seeder not seen: Never

 
 
 
 
 
Author Message

Captain ®

Longevity: 6 years 5 months

Posts: 2557

Location: Earth


Post 11-Sep-2020 22:57

[Quote]

Отряд Фокстрот / Фокстрот Шесть / Foxtrot Six - Производство: Индонезия, США / MD Pictures, Rapid Eye Pictures
Жанр: Фантастика, боевик, драма
Режиссер: Рэнди Коромпис
Актеры: Ока Антара, Верди Солайман, Чикко Джерихо, Рио Деванто, Арифин Путра, Майк Льюис, Миллер Кхан, Эдвард Акбар, Джули Эстелль, Норман Р. Акьювен
Описание:
Недалёкое будущее. Последствия глобального потепления привели мир в настоящий хаос. Власть в Индонезии захватила олигархическая партия «Пиранья», которая наживается на бедствиях народа.
Чтобы восстановить справедливость, в бой с захватчиками вступает отряд профессиональных спецназовцев, который был расформирован несколько лет назад, но вернулся в строй, чтобы спасти свою страну. Шесть спецназовцев-повстанцев пытаются разоблачить преступную деятельность «Пираньи», а от их успеха зависят миллионы жизней.

Продолжительность: 01:54:30
Качество видео: WEB-DLRip
Перевод: Дублированный (Онлайн кинотеатр)
Субтитры: Отсутствуют
Видео: XviD, 720x304, ~1623 Kbps
Аудио: AC-3, 2 ch, 192 Kbps

MediaInfo:

Общее
Полное имя : Foxtrot Six.2019.WEB-DLRip.avi
Формат : AVI
Формат/Информация : Audio Video Interleave
Размер файла : 1,46 Гбайт
Продолжительность : 1 ч. 54 м.
Общий поток : 1824 Кбит/сек
Программа кодирования : VirtualDubMod 1.5.10.3 | www.virtualdub-fr.org || (build 2550/release)
Библиотека кодирования : VirtualDubMod build 2550/release
Видео
Идентификатор : 0
Формат : MPEG-4 Visual
Профиль формата : Advanced [email protected]
Настройки формата : BVOP1 / Custom Matrix
Параметр BVOP формата : 1
Параметр QPel формата : Нет
Параметр GMC формата : Без точки перехода
Параметр матрицы формата : Выборочная
Идентификатор кодека : XVID
Идентификатор кодека/Подсказка : XviD
Продолжительность : 1 ч. 54 м.
Битрейт : 1623 Кбит/сек
Ширина : 720 пикселей
Высота : 304 пикселя
Соотношение сторон : 2,35:1
Частота кадров : 23,976 (24000/1001) кадра/сек
Цветовое пространство : YUV
Субдискретизация насыщенности : 4:2:0
Битовая глубина : 8 бит
Тип развёртки : Прогрессивная
Метод сжатия : С потерями
Бит/(Пиксели*Кадры) : 0.309
Размер потока : 1,30 Гбайт (89%)
Библиотека кодирования : XviD 1.2.1 (UTC 2008-12-04)
Аудио
Идентификатор : 1
Формат : AC-3
Формат/Информация : Audio Coding 3
Коммерческое название : Dolby Digital
Идентификатор кодека : 2000
Продолжительность : 1 ч. 54 м.
Вид битрейта : Постоянный
Битрейт : 192 Кбит/сек
Каналы : 2 канала
ChannelLayout : L R
Частота : 48,0 КГц
Частота кадров : 31,250 кадров/сек (1536 SPF)
Метод сжатия : С потерями
Размер потока : 157 Мбайт (11%)
Выравнивание : Разделение по промежуткам
Продолжительность промежутка : 42 мс. (1,00 видеокадр)
Время предзагрузки промежутка : 500 мс.
ServiceKind/String : Complete Main
-Скриншоты:


Смотреть онлайн

[trackeroc.org].31809.torrent  Магнет ссылка
Torrent: Registered   [ 2020-09-11 22:57 ]

Скачать торрент

15 KB

Status: checked
Completed: 17 times
Size: 1.46 GB
 

trackeroc.org (11-сен-20)

Similar torrent
Forum Topic Author Size
Зарубежные сериалы Шесть / Шестой отряд / Six [сезон 2 серии 1-10 из 10] (2018) Admin 5.37 GB
Фантастика ,Фэнтези Зловещий отряд / Sinister Squad (2016) HDRip Captain 1.37 GB
Фантастика ,Фэнтези Отряд самоубийц / Suicide Squad (2016) HDRip [Extended Cut] Captain 2.05 GB
Фантастика ,Фэнтези Отряд самоубийц / Suicide Squad (2016) HDTVRip [Line] Captain 1.37 GB

_________________
[Profile] [PM]
Display posts from previous:    
Reply to topic

The time now is: Today 01:21

All times are GMT + 4 Hours



You cannot post new topics in this forum
You cannot reply to topics in this forum
You cannot edit your posts in this forum
You cannot delete your posts in this forum
You cannot vote in polls in this forum
You cannot attach files in this forum
You can download files in this forum