Проект «Адам» / Имя наше - Адам / The Adam Project [2022, WEB-DLRip-AVC] скачать торрент

Reply to topic


DL-List and Torrent activity [Update пиров]
Size:  2.11 GB   |    Registered:  1 month 18 days   |    Completed:  0 times
Seeders:  83  [  15 KB/s  ]   Leechers:  2  [  22 MB/s  ]   Show peers in full details
 
 
 
 
Author Message

.:Rtuty:. ®

Longevity: 2 months 21 day

Posts: 33

Location: Москва


Post 26-Jun-2022 22:05

[Quote]

--Проект «Адам» / The Adam Project-- Слоган: «Past Meets Future»--Страна: США--Жанр: фантастика, боевик, комедия, приключения--Год выпуска: 2022--Продолжительность: 01:46:37--Перевод: Профессиональный (дублированный) Пифагор по заказу Netflix--Оригинальная аудиодорожка: Английский--Субтитры: Русские (Форсированные, Полные), Украинские (Полные) Английские (Full, SDH)--Режиссер: Шон Леви / Shawn Levy--В ролях: Райан Рейнольдс, Уокер Скобелл, Марк Руффало, Дженнифер Гарнер, Зои Салдана, Кэтрин Кинер, Алекс Маллари мл., Брэкстон Бьеркен, Мелани Хьюберт, Люси Гест, Дональд Сэйлс, Эстер Мин Ли, Бен Уилкинсон--Описание: Путешествующий во времени пилот Адам Рид совершает аварийную посадку в 2022 году и вместе с собой 12-летним отправляется спасать будущее.--Качество видео: WEB-DLRip-AVC--Формат видео: MKV--Видео: AVC, 1024x428p (2.40:1), 1750 kbps, 24.000 fps, 0.166 bit/pixel.--Аудио 1: AC3 Dolby Digital, 3/2 (L,C,R,l,r) + LFE ch, 48.0 KHz, 448 Kbps.--Аудио 2: AC3 Dolby Digital, 2/0 (L,R) ch, 48 kHz, 192 kbps | Дубляж. Украинский |--Аудио 3: AC3 Dolby Digital, 3/2 (L,C,R,l,r) + LFE ch, 48.0 KHz, 448 Kbps.--Формат субтитров: softsub (SRT)--

Скриншоты

--

Тех.данные видеофайла

Код:
General
Unique ID : 235505659169672863403969668832376873975 (0xB12CBD77A2DA8EDFA36C03ECE76363F7)
Complete name : The Adam Project (2022).mkv
Format : Matroska
Format version : Version 4
File size : 2.11 GiB
Duration : 1 h 46 min
Overall bit rate : 2 836 kb/s
Movie name : Проект «Адам» / The Adam Project (2022)
Encoded date : UTC 2022-05-18 20:25:40
Writing application : mkvmerge v8.1.0 ('Psychedelic Postcard') 64bit
Writing library : libebml v1.3.1 + libmatroska v1.4.2
Cover : Yes
Attachments : cover.jpg
Video
ID : 1
Format : AVC
Format/Info : Advanced Video Codec
Format profile : [email protected]
Format settings : CABAC / 12 Ref Frames
Format settings, CABAC : Yes
Format settings, Reference : 12 frames
Codec ID : V_MPEG4/ISO/AVC
Duration : 1 h 46 min
Bit rate : 1 750 kb/s
Width : 1 024 pixels
Height : 428 pixels
Display aspect ratio : 2.40:1
Frame rate mode : Constant
Frame rate : 24.000 FPS
Color space : YUV
Chroma subsampling : 4:2:0
Bit depth : 8 bits
Scan type : Progressive
Bits/(Pixel*Frame) : 0.166
Stream size : 1.30 GiB (62%)
Title : -=[wolf1245.ExKinoRay]=-
Writing library : x264 core 163 r3060 5db6aa6
Encoding settings : cabac=1 / ref=12 / deblock=1:-2:-2 / analyse=0x3:0x133 / me=umh / subme=9 / psy=1 / psy_rd=1.05:0.15 / mixed_ref=1 / me_range=32 / chroma_me=1 / trellis=2 / 8x8dct=1 / cqm=0 / deadzone=22,11 / fast_pskip=1 / chroma_qp_offset=-3 / threads=10 / lookahead_threads=2 / sliced_threads=0 / nr=0 / decimate=0 / interlaced=0 / bluray_compat=0 / constrained_intra=0 / bframes=10 / b_pyramid=2 / b_adapt=2 / b_bias=0 / direct=3 / weightb=1 / open_gop=0 / weightp=2 / keyint=240 / keyint_min=24 / scenecut=40 / intra_refresh=0 / rc_lookahead=60 / rc=2pass / mbtree=0 / bitrate=1750 / ratetol=1.0 / qcomp=0.60 / qpmin=0 / qpmax=69 / qpstep=4 / cplxblur=20.0 / qblur=0.5 / vbv_maxrate=50000 / vbv_bufsize=62500 / nal_hrd=none / filler=0 / ip_ratio=1.40 / pb_ratio=1.30 / aq=3:0.80
Language : English
Default : Yes
Forced : No
Audio #1
ID : 2
Format : AC-3
Format/Info : Audio Coding 3
Commercial name : Dolby Digital
Codec ID : A_AC3
Duration : 1 h 46 min
Bit rate mode : Constant
Bit rate : 448 kb/s
Channel(s) : 6 channels
Channel layout : L R C LFE Ls Rs
Sampling rate : 48.0 kHz
Frame rate : 31.250 FPS (1536 SPF)
Compression mode : Lossy
Stream size : 342 MiB (16%)
Title : Дубляж (Пифагор)
Language : Russian
Service kind : Complete Main
Default : Yes
Forced : No
Audio #2
ID : 3
Format : AC-3
Format/Info : Audio Coding 3
Commercial name : Dolby Digital
Codec ID : A_AC3
Duration : 1 h 46 min
Bit rate mode : Constant
Bit rate : 192 kb/s
Channel(s) : 2 channels
Channel layout : L R
Sampling rate : 48.0 kHz
Frame rate : 31.250 FPS (1536 SPF)
Compression mode : Lossy
Stream size : 146 MiB (7%)
Title : Дубляж
Language : Ukrainian
Service kind : Complete Main
Default : No
Forced : No
Audio #3
ID : 4
Format : AC-3
Format/Info : Audio Coding 3
Commercial name : Dolby Digital
Codec ID : A_AC3
Duration : 1 h 46 min
Bit rate mode : Constant
Bit rate : 448 kb/s
Channel(s) : 6 channels
Channel layout : L R C LFE Ls Rs
Sampling rate : 48.0 kHz
Frame rate : 31.250 FPS (1536 SPF)
Compression mode : Lossy
Stream size : 342 MiB (16%)
Title : Original
Language : English
Service kind : Complete Main
Default : No
Forced : No
Text #1
ID : 5
Format : UTF-8
Codec ID : S_TEXT/UTF8
Codec ID/Info : UTF-8 Plain Text
Duration : 1 h 43 min
Bit rate : 0 b/s
Count of elements : 11
Stream size : 411 Bytes (0%)
Title : Форсированные
Language : Russian
Default : Yes
Forced : No
Text #2
ID : 6
Format : UTF-8
Codec ID : S_TEXT/UTF8
Codec ID/Info : UTF-8 Plain Text
Duration : 1 h 43 min
Bit rate : 96 b/s
Count of elements : 1451
Stream size : 72.8 KiB (0%)
Title : Полные
Language : Russian
Default : No
Forced : No
Text #3
ID : 7
Format : UTF-8
Codec ID : S_TEXT/UTF8
Codec ID/Info : UTF-8 Plain Text
Duration : 1 h 43 min
Bit rate : 94 b/s
Count of elements : 1462
Stream size : 71.3 KiB (0%)
Title : Полные
Language : Ukrainian
Default : No
Forced : No
Text #4
ID : 8
Format : UTF-8
Codec ID : S_TEXT/UTF8
Codec ID/Info : UTF-8 Plain Text
Duration : 1 h 35 min
Bit rate : 73 b/s
Count of elements : 1535
Stream size : 51.7 KiB (0%)
Title : Full
Language : English
Default : No
Forced : No
Text #5
ID : 9
Format : UTF-8
Codec ID : S_TEXT/UTF8
Codec ID/Info : UTF-8 Plain Text
Duration : 1 h 42 min
Bit rate : 83 b/s
Count of elements : 1818
Stream size : 62.3 KiB (0%)
Title : SDH
Language : English
Default : No
Forced : No


Смотреть онлайн

[trackeroc.org].34807.torrent  Магнет ссылка
Torrent: Registered   [ 2022-06-26 22:05 ]

Скачать торрент

11 KB

Status: checked
Completed: 62 times
Size: 2.11 GB
 

trackeroc.info (27-июн-22)

Similar torrent
Forum Topic Author Size
Квесты, я ищу, Поиск предметов, Hidden Object Mindframe: The Secret Design / Чертоги разума. Секретный проект. [RUS / ENG] (2020) trackeroc.org 674 MB
Комедии Проект: Альф / Project: ALF (1996) [H.264] DVDRip Pro100Moder 1.25 GB
Зарубежные сериалы Проект засекречен / Проект Синяя книга / Project Blue Book / Сезон: 2 / Серии: 1-10 из 10 trackeroc.info 6.15 GB
Квесты, я ищу, Поиск предметов, Hidden Object Surface 12: Project Dawn / Внешние пределы 12: Проект "Заря" [RUS / ENG] (2017) trackeroc.info 1.5 GB

_________________
[Profile] [PM]
Display posts from previous:    
Reply to topic

The time now is: Today 04:10

All times are GMT + 4 Hours



You cannot post new topics in this forum
You cannot reply to topics in this forum
You cannot edit your posts in this forum
You cannot delete your posts in this forum
You cannot vote in polls in this forum
You cannot attach files in this forum
You can download files in this forum