Семейка Крудс: Новоселье / The Croods: A New Age (2020) BDRip скачать торрент

Reply to topic


DL-List and Torrent activity [Update пиров]
Size:  1.42 GB   |    Registered:  1 year 5 months   |    Completed:  13 times
Seeders:  616  [  90 KB/s  ]   Leechers:  45  [  9 MB/s  ]   Show peers in full details
 
 
 
 
Author Message

trackeroc.org ®

Longevity: 2 years

Posts: 899

Location: ttrackeroc.ru trackeroc.org trackeroc.info trackeroc.site trackeroc.ml trackeroc.ga trackeroc.space


Post 04-Jan-2021 16:21

[Quote]

«Когда пришли в светлое будущее, а там... уже кто-то живет»
Информация
Название: Семейка Крудс: Новоселье
Оригинальное название: The Croods: A New Age
Год выхода: 2020
Жанр: Мультфильм, фэнтези, комедия, приключения, семейный
Режиссер: Джоэль Кроуфорд
Роли озвучивают: Николас Кейдж, Эмма Стоун, Райан Рейнольдс, Кэтрин Кинер, Клорис Личмен, Кларк Дьюк, Лесли Манн, Питер Динклэйдж, Келли Мари Трэн, Кайли Кроуфорд
Описание:
Такие харизматичные герои как члены клана Крудс просто не в силах усидеть на месте. Они смело идут навстречу самым головокружительным приключениям и готовы ответить непредсказуемостью и находчивостью на любой вызов судьбы.


Страна: США
Студия: DreamWorks Animation
Продолжительность: 01:35:15
Перевод: Профессиональный (полное дублирование) | iTunes
Файл
Качество: BDRip
Исходник: The.Croods.A.New.Age.2020.BluRay.1080p.TrueHD.Atmos.7.1.AVC.REMUX-FraMeSToR
Формат: AVI
Кодек: XviD
Видео: 720x304 (2.35:1), 23.976 fps, XviD ~ 1738 Kbps avg, 0.331 bit/pixel
Аудио: AC3, 48 kHz, 6 ch, ~384.00 kbps avg | русский | iTunes
Субтитры: Русские (форсированные, полные) отдельно

Скриншоты



Смотреть онлайн

Attachments

мини–сериал | https://www.kinopoisk.ru/series/4542864/

[trackeroc.org].32427.torrent  Магнет ссылка
Torrent: Registered   [ 2021-02-28 12:22 ]

Скачать торрент

15 KB

Status: checked
Completed: 8650 times
Size: 1.42 GB
 

trackerocx.ru (07-апр-22), trackeroc.info (07-июн-22)

[Profile] [PM]

trackeroc.info

Longevity: 8 years 3 months

Posts: 11699

Location: trackeroc.org trackeroc.info trackeroc.ml trackeroc.ga trackeroc.space


Post 10-Jul-2022 14:00 (after 1 year 6 months)

[Quote]

Информация о фильме
Название: Семейка Крудс: Семейное древо
Оригинальное название: The Croods: Family Tree
Год выхода: 2022
Жанр: Мультфильм, Приключения, Семейный
Режиссер: Марк Банкер, Тодд Гримс
В ролях: Келли Мари Трэн, Эми Ландекер, Элли Диксон, Кифф ВанденХёвел, А.Дж.ЛоКашио, Артемис Пебдани, Ди Брэдли Бэйкер, Дэрин Брукс, Мэтью Уотерсон
О фильме: Соперничающие с доисторических времён семьи Крудсов и Беттерманов учатся преодолевать разногласия живя вместе на самой прекрасной ферме.

Страна: США
Канал: hulu
Продолжительность: 6 x ~ 00:23:00
Перевод: Любительский (многоголосый) [AniMaunt]
Файл
Качество: WEB-DL 1080p
Видео: MPEG-4 AVC, ~ 7814 Кбит/с, 1920x1080
Аудио: Русский (AC3, 2 ch, 192 Кбит/с), английский (AC3, 6 ch, 192 Кбит/с)
Субтитры: Английские
Релиз от: WAD79

Скриншоты

[url=/tag/7/][/url]


Смотреть онлайн

Attachments
[Profile] [PM]

trackeroc.info

Longevity: 8 years 3 months

Posts: 11699

Location: trackeroc.org trackeroc.info trackeroc.ml trackeroc.ga trackeroc.space


Post 19-Jul-2022 07:38 (after 8 days)

[Quote]

Семейка Крудс. Начало / Dawn of the Croods- Год выпуска: 2015-2017
Страна: США
Студия: Netflix, DreamWorks Animation
Жанр: комедия, приключения, семейный
Продолжительность: ТВ (52 эп.), ~ 23 минуты
Перевод:
  • Профессиональный (дублированный) студия "СВ-Дубль" по заказу СТС
  • Профессиональный (многоголосый закадровый) NewStudio (Константин Погодаев, Александр Дасевич, Анна Тух, Дарья Фролова)
-Режиссёр: Алекс Альмагер / Alex Almaguer-Роли озвучивали: Дэн Милано, Эйджей Локасио, Лорейн Ньюмен, Кри Саммер, Стефани Николь Лемелин, Доминик Кэтрэмбоун, Ди Брэдли Бейкер, Грэй Гриффин, Крис Парнелл, Томас Леннон и другие-Роли дублировали: Александр Носков, Василий Зотов, Ирина Савина, Татьяна Шитова, Ирина Киреева, Дмитрий Поляновский, Андрей Вальц, Ольга Шорохова, Филипп Лебедев-Описание: Землетрясение уничтожило дом доисторической семьи, и теперь им придётся искать другое пристанище. А вокруг новый и опасный мир! Только вместе они смогут выжить и достичь своей цели…- -Исходники: Dawn.of.the.Croods.S01-04.1080p.NF.WEBRip.DD5.1.x264-NTb
Качество: WEB-DL 1080p
Формат: MKV
Видео кодек: AVC
Аудио кодек: AC3
Видео: MPEG-4 AVC, 1920x1080, 23.976 fps, ~5400 kbps
Аудио:
  • Russian: 48 kHz, AC3, 2/0 (L,R) ch, ~192 kbps avg - Дубляж, СВ-Дубль / СТС
    Russian: 48 kHz, AC3, 3/2 (L,C,R,l,r) + LFE ch, ~384 kbps avg - Многоголосый закадровый, NewStudio (1-13 серии)
    Russian: 48 kHz, AC3, 2/0 (L,R) ch, ~192 kbps avg - Многоголосый закадровый, NewStudio (14-26 серии)
  • Ukrainian: 48 kHz, AC3, 2/0 (L,R) ch, ~192 kbps avg - Багатоголосий закадровий, ISP Film / QTV (1-26 серии)
  • English: 48 kHz, AC3, 3/2 (L,C,R,l,r) + LFE ch, ~384 kbps avg
Субтитры: Russian (NewStudio [Forced]), English (SDH)-

Релиз

-Релиз от: -

Доп. информация

  • В отличие от данного релиза в раздачах [url=viewtopic.php?t=6099904]3[/url] и [url=viewtopic.php?t=6161899]4[/url] сезонов от TurboSaber аудиодорожка с дубляжем находится ниже 14 кГц, и в ней пропущены некоторые озвученные моменты.

    GoldenBridge vs. TurboSaber

    - -Аудио сравнение-

  • Аудиодорожка NewStudio взята с раздач в Kinozal'е, и в ней убрана реклама.

Над релизом работали

  • afedrenkv, #Antisnl#, Beer kolesik Drinkers - запись с канала СТС
  • filin1984, BLACKTIR - предоставление аудиодорожки NewStudio
  • sergiyko.5 - запись с украинского канала QTV
  • GoldenBridge - работа со звуком, итоговый муксинг

Правила, условия распространения (к прочтению обязательно)

Внимание, данный релиз содержит эксклюзивный контент от GoldenBridge. Использование контента без баннера группы: и указания первоначального источника - ЗАПРЕЩАЕТСЯ!
-
-

Список серий

Сезон 1
01. A Gran Day Out
02. School of Hard Rocks
03. Wet Hot Ahhh! Valley Summer / Grug vs. The Moon
04. This Mean Warts
05. The First Picture Show
06. Caved and Confused
07. Eep-over / Thunkytown
08. Mom Genes
09. Garden of Eaten
10. Night of the Living Croods / A Spoonful of Soo-gar
11. Friday Night Liyotes
12. The Crood Who Knew Too Much / Scent of a Thunk
13. Unsolved Myster-Eep
Сезон 2
14. Gran the Unfriendly Ghost / Bad Sandy
15. It Crushes / Rebel Without a Paws
16. Grug vs. Math / Footloss
17. The Good Surprise / Night Mare on Eep Street
18. What Screams May Come / Grunt Anything
19. There Will Be Eggs / I Think We're Alone Meow
20. FrEEPy Friday
21. Grug vs. Gurg / Unfair Fair
22. Baby Face Off / The Pursuit of Wrinkliness
23. Croodtopia / Hands on a Hard Egg
24. Disaster of Puppets / Love Will Eep Us Together
25. The Tide is Nigh / Rain Gran
26. Dawn of the Broods
Сезон 3
27. It Takes Ahhh! Valley
28. Deus Ex Monkhuahua / Slak Attack
29. Gorgey Girl / A Gran Adventure
30. 127 Owwws / 28 Fleas Later
31. To Squawk, With Love / Lerk Was The Night
32. The Flawed Couple / Go-Sip Girl
33. Munk History / Happy Howl Day
34. Snooty and the Beasts
35. Zero Dark Thunky / Pie vs. Pie
36. Super Smash Siblings / A Hole In Grug
37. Bait With Destiny / Sappy Together
38. Scare Tactics / DisturbiAHHH!
39. Thunk O'Clock High / The Croo-gitive
Сезон 4
40. A Few Good Grugs / Valley Shine Day
41. Chalk the Line / Weighing is the Hardest Part
42. Wrestlebabia: The Musical / Flowers for Munk
43. They Might Be Sky Giants / The Grugest Story Ever Told
44. Worms Of Endearment / Dr. StrangeGrug (Or How I Learned To Stop Worrying And Love The Spear)
45. Tunnel of Terror / Creature From The Crood Lagoon
46. Voice Fail
47. Punch-Thunk Love / Nay Boors
48. Caverns and CrEepers / Rad Teacher
49. Grug's First Chance / Furry Road: The Path of the Bear Owl
50. My Big Fat Gran Wedding / The Strutting Edge
51. Can't Hardly Bait / Crood Detente
52. This Is An End

Media Info

Код:
Общее
Уникальный идентификатор                 : 155576493912733543017682000362792726663 (0x750AF15D1B13503AF3189B0680F6B087)
Полное имя                               : E:\Video\HD\Animated Series\[GoldenBridge] Dawn of the Croods [WEB-DL Netflix] [1080p]\[GoldenBridge] Dawn of the Croods 1x01 (01) A Gran Day Out [WEB-DL Netflix] [1080p].mkv
Формат                                   : Matroska
Версия формата                           : Version 4
Размер файла                             : 1,06 Гбайт
Продолжительность                        : 23 м. 25 с.
Режим общего битрейта                    : Переменный
Общий поток                              : 6 458 Кбит/сек
Дата кодирования                         : UTC 2022-07-05 13:20:55
Программа кодирования                    : mkvmerge v51.0.0 ('I Wish') 64-bit
Библиотека кодирования                   : libebml v1.4.0 + libmatroska v1.6.2
Видео
Идентификатор                            : 1
Формат                                   : AVC
Формат/Информация                        : Advanced Video Codec
Профиль формата                          : [email protected]
Настройки формата                        : CABAC / 3 Ref Frames
Параметр CABAC формата                   : Да
Параметр RefFrames формата               : 3 кадра
Идентификатор кодека                     : V_MPEG4/ISO/AVC
Продолжительность                        : 23 м. 25 с.
Вид битрейта                             : Переменный
Битрейт                                  : 5 360 Кбит/сек
Максимальный битрейт                     : 8 040 Кбит/сек
Ширина                                   : 1 920 пикселей
Высота                                   : 1 080 пикселей
Соотношение сторон                       : 16:9
Режим частоты кадров                     : Постоянный
Частота кадров                           : 23,976 (24000/1001) кадра/сек
Цветовое пространство                    : YUV
Субдискретизация насыщенности            : 4:2:0
Битовая глубина                          : 8 бит
Тип развёртки                            : Прогрессивная
Бит/(Пиксели*Кадры)                      : 0.108
Размер потока                            : 889 Мбайт (82%)
Библиотека кодирования                   : x264 core 118
Настройки программы                      : cabac=1 / ref=3 / deblock=1:0:0 / analyse=0x1:0x111 / me=umh / subme=10 / psy=1 / psy_rd=1.00:0.00 / mixed_ref=1 / me_range=24 / chroma_me=1 / trellis=2 / 8x8dct=0 / cqm=0 / deadzone=21,11 / fast_pskip=1 / chroma_qp_offset=-2 / threads=6 / sliced_threads=0 / nr=0 / decimate=1 / interlaced=0 / bluray_compat=0 / constrained_intra=0 / bframes=2 / b_pyramid=0 / b_adapt=2 / b_bias=0 / direct=3 / weightb=1 / open_gop=0 / weightp=2 / keyint=48 / keyint_min=25 / scenecut=0 / intra_refresh=0 / rc_lookahead=0 / rc=2pass / mbtree=1 / bitrate=5360 / ratetol=1.0 / qcomp=0.50 / qpmin=6 / qpmax=51 / qpstep=4 / cplxblur=20.0 / qblur=0.5 / vbv_maxrate=8040 / vbv_bufsize=10720 / nal_hrd=vbr / ip_ratio=1.40 / aq=1:1.00
Язык                                     : English
Default                                  : Да
Forced                                   : Нет
Аудио #1
Идентификатор                            : 2
Формат                                   : AC-3
Формат/Информация                        : Audio Coding 3
Коммерческое название                    : Dolby Digital
Идентификатор кодека                     : A_AC3
Продолжительность                        : 23 м. 25 с.
Вид битрейта                             : Постоянный
Битрейт                                  : 192 Кбит/сек
Каналы                                   : 2 канала
Channel layout                           : L R
Частота                                  : 48,0 КГц
Частота кадров                           : 31,250 кадров/сек (1536 SPF)
Метод сжатия                             : С потерями
Размер потока                            : 32,2 Мбайт (3%)
Заголовок                                : AC3 2.0 @ 192 kbps - Дубляж, СВ-Дубль / СТС
Язык                                     : Russian
Service kind                             : Complete Main
Default                                  : Да
Forced                                   : Нет
Аудио #2
Идентификатор                            : 3
Формат                                   : AC-3
Формат/Информация                        : Audio Coding 3
Коммерческое название                    : Dolby Digital
Идентификатор кодека                     : A_AC3
Продолжительность                        : 23 м. 25 с.
Вид битрейта                             : Постоянный
Битрейт                                  : 384 Кбит/сек
Каналы                                   : 6 каналов
Channel layout                           : L R C LFE Ls Rs
Частота                                  : 48,0 КГц
Частота кадров                           : 31,250 кадров/сек (1536 SPF)
Метод сжатия                             : С потерями
Размер потока                            : 64,4 Мбайт (6%)
Заголовок                                : AC3 5.1 @ 384 kbps - Многоголосый закадровый, NewStudio
Язык                                     : Russian
Service kind                             : Complete Main
Default                                  : Нет
Forced                                   : Нет
Аудио #3
Идентификатор                            : 4
Формат                                   : AC-3
Формат/Информация                        : Audio Coding 3
Коммерческое название                    : Dolby Digital
Идентификатор кодека                     : A_AC3
Продолжительность                        : 23 м. 25 с.
Вид битрейта                             : Постоянный
Битрейт                                  : 192 Кбит/сек
Каналы                                   : 2 канала
Channel layout                           : L R
Частота                                  : 48,0 КГц
Частота кадров                           : 31,250 кадров/сек (1536 SPF)
Метод сжатия                             : С потерями
Размер потока                            : 32,2 Мбайт (3%)
Заголовок                                : AC3 2.0 @ 192 kbps - Багатоголосий закадровий, ISP Film / QTV
Язык                                     : Ukrainian
Service kind                             : Complete Main
Default                                  : Нет
Forced                                   : Нет
Аудио #4
Идентификатор                            : 5
Формат                                   : AC-3
Формат/Информация                        : Audio Coding 3
Коммерческое название                    : Dolby Digital
Идентификатор кодека                     : A_AC3
Продолжительность                        : 23 м. 25 с.
Вид битрейта                             : Постоянный
Битрейт                                  : 384 Кбит/сек
Каналы                                   : 6 каналов
Channel layout                           : L R C LFE Ls Rs
Частота                                  : 48,0 КГц
Частота кадров                           : 31,250 кадров/сек (1536 SPF)
Метод сжатия                             : С потерями
Размер потока                            : 64,4 Мбайт (6%)
Заголовок                                : AC3 5.1 @ 384 kbps
Язык                                     : English
Service kind                             : Complete Main
Default                                  : Нет
Forced                                   : Нет
Текст #1
Идентификатор                            : 6
Формат                                   : UTF-8
Идентификатор кодека                     : S_TEXT/UTF8
Идентификатор кодека/Информация          : UTF-8 Plain Text
Продолжительность                        : 10 с. 302 мс.
Битрейт                                  : 128 бит/сек
Count of elements                        : 2
Размер потока                            : 166 байт (0%)
Заголовок                                : Russian @ SRT @ Forced - NewStudio
Язык                                     : Russian
Default                                  : Нет
Forced                                   : Нет
Текст #2
Идентификатор                            : 7
Формат                                   : UTF-8
Идентификатор кодека                     : S_TEXT/UTF8
Идентификатор кодека/Информация          : UTF-8 Plain Text
Продолжительность                        : 22 м. 57 с.
Битрейт                                  : 79 бит/сек
Count of elements                        : 415
Размер потока                            : 13,4 Кбайт (0%)
Заголовок                                : English @ SRT @ SDH
Язык                                     : English
Default                                  : Нет
Forced                                   : Нет

Скриншоты

-
-
-


Смотреть онлайн

Attachments
[Profile] [PM]
Display posts from previous:    
Reply to topic

The time now is: Today 05:08

All times are GMT + 4 Hours



You cannot post new topics in this forum
You cannot reply to topics in this forum
You cannot edit your posts in this forum
You cannot delete your posts in this forum
You cannot vote in polls in this forum
You cannot attach files in this forum
You can download files in this forum