Спирит Непокорный / Spirit Untamed (2021) WEBRip [H.264] [PR] скачать торрент

Reply to topic


DL-List and Torrent activity [Update пиров]
Size:  1.46 GB   |    Registered:  1 month 30 days   |    Completed:  0 times
Seeders:  199  [  478 KB/s  ]   Leechers:  27  [  64 MB/s  ]   Show peers in full details
 
 
 
 
Author Message

Pro100Moder ®

Longevity: 7 years 6 months

Posts: 2486

Location: Earth


Post 29-Aug-2021 03:52

[Quote]

Спирит Непокорный / Spirit Untamed
«Следуй велению сердца»
- Производство: США, DreamWorks Animation, Walden Media
Жанр: мультфильм, приключения, семейный, вестерн
Режиссер: Илэйн Боган, Эннио Торресан
Актеры: Изабела Мерсед, Джулианна Мур, Джейк Джилленхол, Марсаи Мартин, Маккенна Грейс, Уолтон Гоггинс, Гари А. Хэккер, Эйса Гонсалес, Андре Брауэр, Люсиан Перес
Описание: Лаки Прескотт — юная бунтарка, совсем как ее мама, легендарная бесстрашная наездница, которую дочь почти не помнит. После очередной шалости заботливая тетушка Кора, вырастившая девочку, отправляет ее жить к отцу. Теперь все, о чем мечтает Лаки — вырваться на волю из крошечного сонного городка. Все меняется, когда она знакомится со Спиритом — диким мустангом, таким же упрямым и независимым, как и она сама. После того как Спирит попадает в руки бессердечного ковбоя и его подельников, Лаки в сопровождении новых друзей отправляется в полное опасностей путешествие, чтобы его спасти.

Возраст: 6+ (зрителям, достигшим 6 лет)
Рейтинг MPAA: PG (рекомендуется присутствие родителей)
Премьера в Росcии: 20 мая 2021, «UPI»
Премьера в мире: 27 мая 2021
Цифровой релиз: 5 августа 2021, «Universal»

Релиз от: stalkerok & New-Team
Продолжительность: 01:27:43
Качество видео: WEBRip
Перевод: Дублированный (Пифагор) КиноПоиск HD
Субтитры: русские (полные), английские (полные, SDH)
Видео: AVC/H.264, 1802 kbps, 1070x448 (2.40:1), 23,976 fps
Аудио №1: AC3, 448 kbps, 6 ch - русский
Аудио №2: AAC, 128 kbps, 2 ch - английский

MediaInfo:

General
Unique ID : 16407895055103026520235973066752561045 (0xC580BAF2291EA4DF3228FD302B88F95)
Complete name : Spirit.Untamed.2021.WEB-DLRip.x264.Rus.Eng.stalkerok.New-Team.mkv
Format : Matroska
Format version : Version 4
File size : 1.46 GiB
Duration : 1 h 27 min
Overall bit rate : 2 381 kb/s
Movie name : Spirit Untamed (2021) | Rip by stalkerok
Encoded date : UTC 2021-08-06 15:17:57
Writing application : mkvmerge v60.0.0 ('Are We Copies?') 64-bit
Writing library : libebml v1.4.2 + libmatroska v1.6.4
Video
ID : 1
Format : AVC
Format/Info : Advanced Video Codec
Format profile : [email protected]
Format settings : CABAC / 12 Ref Frames
Format settings, CABAC : Yes
Format settings, Reference frames : 12 frames
Codec ID : V_MPEG4/ISO/AVC
Duration : 1 h 27 min
Bit rate : 1 802 kb/s
Width : 1 070 pixels
Height : 448 pixels
Display aspect ratio : 2.40:1
Frame rate mode : Constant
Frame rate : 23.976 (24000/1001) FPS
Color space : YUV
Chroma subsampling : 4:2:0
Bit depth : 8 bits
Scan type : Progressive
Bits/(Pixel*Frame) : 0.157
Stream size : 1.10 GiB (76%)
Writing library : x264 core 164 r3065+55M 280faca t_mod_New [(8 & 10)[email protected] X86_64]
Encoding settings : cabac=1 / ref=12 / deblock=1:-1:-1 / analyse=0x3:0x133 / me=umh / subme=10 / psy=1 / fade_compensate=0.00 / psy_rd=1.00:0.00 / mixed_ref=1 / me_range=32 / chroma_me=1 / trellis=2 / 8x8dct=1 / cqm=0 / deadzone=21,11 / fast_pskip=0 / chroma_qp_offset=-2 / threads=12 / lookahead_threads=3 / sliced_threads=0 / nr=0 / decimate=1 / interlaced=0 / bluray_compat=0 / constrained_intra=0 / fgo=0 / bframes=14 / b_pyramid=2 / b_adapt=2 / b_bias=0 / direct=3 / weightb=1 / open_gop=0 / weightp=2 / keyint=240 / keyint_min=23 / scenecut=40 / intra_refresh=0 / rc_lookahead=60 / rc=crf / mbtree=0 / crf=18.3000 / qcomp=0.65 / qpmin=0:0:0 / qpmax=69:69:69 / qpstep=4 / vbv_maxrate=50000 / vbv_bufsize=62500 / crf_max=0.0 / nal_hrd=none / filler=0 / ip_ratio=1.40 / pb_ratio=1.30 / aq=3:0.75 / aq-sensitivity=10.00 / aq-factor=1.00:1.00:1.00 / aq2=0 / aq3=0
Default : Yes
Forced : No
Audio #1
ID : 2
Format : AC-3
Format/Info : Audio Coding 3
Commercial name : Dolby Digital
Codec ID : A_AC3
Duration : 1 h 27 min
Bit rate mode : Constant
Bit rate : 448 kb/s
Channel(s) : 6 channels
Channel layout : L R C LFE Ls Rs
Sampling rate : 48.0 kHz
Frame rate : 31.250 FPS (1536 SPF)
Compression mode : Lossy
Stream size : 281 MiB (19%)
Language : Russian
Service kind : Complete Main
Default : Yes
Forced : No
Audio #2
ID : 3
Format : AAC LC
Format/Info : Advanced Audio Codec Low Complexity
Codec ID : A_AAC-2
Duration : 1 h 27 min
Bit rate : 128 kb/s
Channel(s) : 2 channels
Channel layout : L R
Sampling rate : 48.0 kHz
Frame rate : 46.875 FPS (1024 SPF)
Compression mode : Lossy
Delay relative to video : 9 ms
Stream size : 80.2 MiB (5%)
Language : English
Default : No
Forced : No
Text #1
ID : 4
Format : UTF-8
Codec ID : S_TEXT/UTF8
Codec ID/Info : UTF-8 Plain Text
Duration : 1 h 26 min
Bit rate : 87 b/s
Count of elements : 1176
Stream size : 55.7 KiB (0%)
Language : Russian
Default : No
Forced : No
Text #2
ID : 5
Format : UTF-8
Codec ID : S_TEXT/UTF8
Codec ID/Info : UTF-8 Plain Text
Duration : 1 h 26 min
Bit rate : 64 b/s
Count of elements : 1673
Stream size : 41.0 KiB (0%)
Language : English
Default : No
Forced : No
Text #3
ID : 6
Format : UTF-8
Codec ID : S_TEXT/UTF8
Codec ID/Info : UTF-8 Plain Text
Duration : 1 h 27 min
Bit rate : 80 b/s
Count of elements : 2041
Stream size : 51.5 KiB (0%)
Title : SDH
Language : English
Default : No
Forced : No

Дополнительная информация:

Исходник: Spirit.Untamed.2021.1080p.KP.WEB-DL.DDP5.1.H.264-EniaHD
-Скриншоты:


Смотреть онлайн

[trackeroc.org].33548.torrent  Магнет ссылка
Torrent: Registered   [ 2021-08-29 03:52 ]

Скачать торрент

16 KB

Status: checked
Completed: 155 times
Size: 1.46 GB
 

trackeroc.info (29-авг-21)

[Profile] [PM]
Display posts from previous:    
Reply to topic

The time now is: Today 11:58

All times are GMT + 4 Hours



You cannot post new topics in this forum
You cannot reply to topics in this forum
You cannot edit your posts in this forum
You cannot delete your posts in this forum
You cannot vote in polls in this forum
You cannot attach files in this forum
You can download files in this forum