Спрут / La Piovra (1984-2001) DVDRip (сезон 1-10, серии 1-48 из 48) ЦТ скачать торрент

Reply to topic


DL-List and Torrent activity [Update пиров]
Size:  35.58 GB   |    Registered:  24 days   |    Completed:  0 times

Seeder not seen: Never

 
 
 
 
 
Author Message

Pro100Moder ®

Longevity: 7 years

Posts: 2545

Location: Earth


Post 27-Mar-2021 06:27

[Quote]

Спрут / La Piovra - Производство: Италия, Франция, Великобритания, ФРГ / RAI Radiotelevisione Italiana, Télécip, France 2 (FR2)
Жанр: Мелодрама, драма, криминал.
Режиссер: Дамиано Дамиани, Луиджи Перелли.
Актеры: Микеле Плачидо, Николь Жаме, Барбара Де Росси, Каридди Нардулли, Анджело Инфанти, Франсуа Перье, Массимо Бонетти, Флоринда Болкан, Поль Гер, Пино Колицци.
Описание:
В небольшом сицилийском городке убивают начальника уголовного розыска Маринео. Кажется, что это преступление мафии. В тот же день становится известно еще об одной смерти. Покончила с собой маркиза Печчи Шалойя.
На место убитого комиссара назначают Коррадо Каттани, опытного полицейского, который переезжает на Сицилию с женой и дочерью. Расследуя убийство предшественника, Коррадо знакомится с наркоманкой Титти Печчи Шалойя и постепенно в нее влюбляется. Вскоре ему удается нащупать скрытую связь между убийством Маринео и самоубийством маркизы…

Возраст: 16+ (зрителям, достигшим 16 лет)
Релиз от: Woodzik
Продолжительность: ~01:00:00 серия (сезон 1-3); ~01:40:00 серия (сезон 4-10)
Качество видео: DVDRip
Перевод: Многоголосый профессиональный (ЦТ СССР)
Видео: DivX, 576x432 (сезон 1); 640x480 (сезон 2-3); 704x528 (сезон 4-5); 512x368 (сезон 6-7); 544x304 (сезон 8-10); ~800-1500 Kbps
Аудио: MP3, 2 ch, 128 kbps

Доп. информация:

Серия 41 и 42 без перевода.
Язык- оригинал, итальянский.
Субтитры- русские, вшитые.

MediaInfo:

Общее
Формат : AVI
Формат/Информация : Audio Video Interleave
Размер файла : 686 Мбайт
Продолжительность : 1 ч. 2 м.
Общий поток : 1 531 Кбит/сек
Программа кодирования : Nandub v1.0rc2
Библиотека кодирования : Nandub build 1853/release
Видео
Идентификатор : 0
Формат : MPEG-4 Visual
Настройки формата : BVOP1
Параметр BVOP формата : 1
Параметр QPel формата : Нет
Параметр GMC формата : Без точки перехода
Параметр матрицы формата : Default (H.263)
Режим смешивания : Сжатый битовый поток
Идентификатор кодека : DX50
Идентификатор кодека/Подсказка : DivX 5
Продолжительность : 1 ч. 2 м.
Битрейт : 1 391 Кбит/сек
Номинальный битрейт : 6 951 Кбит/сек
Ширина : 576 пикселей
Высота : 432 пикселя
Соотношение сторон : 4:3
Частота кадров : 25,000 кадров/сек
Цветовое пространство : YUV
Субдискретизация насыщенности : 4:2:0
Битовая глубина : 8 бит
Тип развёртки : Прогрессивная
Метод сжатия : С потерями
Бит/(Пиксели*Кадры) : 0.224
Размер потока : 624 Мбайт (91%)
Библиотека кодирования : DivX 5.1.1 (Maupiti) (UTC 2003-11-19)
Аудио
Идентификатор : 1
Формат : MPEG Audio
Версия формата : Version 1
Профиль формата : Layer 3
Идентификатор кодека : 55
Идентификатор кодека/Подсказка : MP3
Продолжительность : 1 ч. 2 м.
Вид битрейта : Постоянный
Битрейт : 128 Кбит/сек
Каналы : 1 канал
Частота : 44,1 КГц
Частота кадров : 38,281 кадров/сек (1152 SPF)
Метод сжатия : С потерями
Размер потока : 57,4 Мбайт (8%)
Выравнивание : Соединение по промежуткам
Продолжительность промежутка : 26 мс. (0,65 видеокадр)
Время предзагрузки промежутка : 496 мс.
Библиотека кодирования : LAME3.93
-Скриншоты:


Смотреть онлайн

[trackeroc.org].32759.torrent  Магнет ссылка
Torrent: Registered   [ 2021-03-27 06:27 ]

Скачать торрент

185 KB

Status: checked
Completed: 46 times
Size: 35.58 GB
 

www.trackeroc.ru (27-мар-21)


_________________
[Profile] [PM]
Display posts from previous:    
Reply to topic

The time now is: Today 17:10

All times are GMT + 4 Hours



You cannot post new topics in this forum
You cannot reply to topics in this forum
You cannot edit your posts in this forum
You cannot delete your posts in this forum
You cannot vote in polls in this forum
You cannot attach files in this forum
You can download files in this forum