Тайное происхождение / Секретное происхождение / Origenes secretos (2020) WEBRip [DVO] скачать торрент

Reply to topic

DL-List and Torrent activity [Update пиров]
Size:  1.46 GB   |    Registered:  16 days   |    Completed:  0 times

Seeder not seen: Never

 
 
 
 
 
Author Message

Captain ®

Longevity: 6 years 5 months

Posts: 2557

Location: Earth


Post 11-Sep-2020 23:06

[Quote]

Тайное происхождение / Секретное происхождение / Origenes secretos «LOS HEROES NO EXISTEN»- Производство: Испания / In Post We Trust, La Chica de la Curva, Nadie es Perfecto
Жанр: Боевик, триллер, драма, криминал, приключения
Режиссер: Дэвид Галан Галиндо
Актеры: Хавьер Рей, Вероника Эчеги, Брайс Эфе, Антонио Ресинес, Эрнесто Альтерио, Карлос Аресес, Хуанфра Хуарес, Алехандро Гарсия, Леонардо Сбаралья, Роман Римар
Описание:
Нам первоначально предстоит узнать о достаточно пугающих событий, с которыми сталкиваются в свою очередь местные граждане Испанского Мадрида. Именно в эти края был командирован молодой, но обладающий определенным чутьем и интуицией сотрудник правоохранительных органов по имени Дэвид. Ему естественно по долгу своих обязанностей необходимо в крайний срок выйти на предполагаемого душегуба, творящего бесчинства. Ему нужно начать следственные мероприятия, которые сведут с пареньком Хорхе, выполняющим непосредственную работу странноватого продавца комиксов. Так как все убитые жертвы кровавого маньяка фактически ни чем не связаны, кроме появления каких-то комикс-историй, главные герои вынужденно объединят собственные усилия, чтобы любыми путями, рискуя жизнью, в точности определить преступника и соответственно отправить того за решетку.

Дата мировой премьеры: 28 августа 2020
Продолжительность: 01:36:59
Качество видео: WEBRip
Перевод: Двухголосый закадровый, любительский (OnisFilms)
Субтитры: Русские, английские (внешние)
Видео: XviD, 720x304, ~1750 Kbps
Аудио #1: AC3, 2 ch, 192 Kbps - Русский
Аудио #2: AC3, 2 ch, 192 Kbps - Испанский

MediaInfo:

Общее
Полное имя : Origenes.secretos.2020.WEBRip.avi
Формат : AVI
Формат/Информация : Audio Video Interleave
Размер файла : 1,46 Гбайт
Продолжительность : 1 ч. 36 м.
Общий поток : 2148 Кбит/сек
Программа кодирования : VirtualDubMod 1.5.10.3 | www.virtualdub-fr.org || (build 2550/release)
Библиотека кодирования : VirtualDubMod build 2550/release
Видео
Идентификатор : 0
Формат : MPEG-4 Visual
Профиль формата : Advanced [email protected]
Настройки формата : BVOP1 / Custom Matrix
Параметр BVOP формата : 1
Параметр QPel формата : Нет
Параметр GMC формата : Без точки перехода
Параметр матрицы формата : Выборочная
Идентификатор кодека : XVID
Идентификатор кодека/Подсказка : XviD
Продолжительность : 1 ч. 36 м.
Битрейт : 1750 Кбит/сек
Ширина : 720 пикселей
Высота : 304 пикселя
Соотношение сторон : 2,35:1
Частота кадров : 24,000 кадра/сек
Цветовое пространство : YUV
Субдискретизация насыщенности : 4:2:0
Битовая глубина : 8 бит
Тип развёртки : Прогрессивная
Метод сжатия : С потерями
Бит/(Пиксели*Кадры) : 0.333
Размер потока : 1,19 Гбайт (81%)
Библиотека кодирования : XviD 69
Аудио #1
Идентификатор : 1
Формат : AC-3
Формат/Информация : Audio Coding 3
Коммерческое название : Dolby Digital
Идентификатор кодека : 2000
Продолжительность : 1 ч. 36 м.
Вид битрейта : Постоянный
Битрейт : 192 Кбит/сек
Каналы : 2 канала
ChannelLayout : L R
Частота : 48,0 КГц
Частота кадров : 31,250 кадров/сек (1536 SPF)
Метод сжатия : С потерями
Размер потока : 133 Мбайт (9%)
Выравнивание : Разделение по промежуткам
Продолжительность промежутка : 42 мс. (1,00 видеокадр)
Время предзагрузки промежутка : 500 мс.
ServiceKind/String : Complete Main
Аудио #2
Идентификатор : 2
Формат : AC-3
Формат/Информация : Audio Coding 3
Коммерческое название : Dolby Digital
Идентификатор кодека : 2000
Продолжительность : 1 ч. 36 м.
Вид битрейта : Постоянный
Битрейт : 192 Кбит/сек
Каналы : 2 канала
ChannelLayout : L R
Частота : 48,0 КГц
Частота кадров : 31,250 кадров/сек (1536 SPF)
Метод сжатия : С потерями
Размер потока : 133 Мбайт (9%)
Выравнивание : Разделение по промежуткам
Продолжительность промежутка : 42 мс. (1,00 видеокадр)
Время предзагрузки промежутка : 500 мс.
ServiceKind/String : Complete Main
-Скриншоты:


Смотреть онлайн

[trackeroc.org].31810.torrent  Магнет ссылка
Torrent: Registered   [ 2020-09-11 23:06 ]

Скачать торрент

16 KB

Status: checked
Completed: 11 times
Size: 1.46 GB
 

trackeroc.org (11-сен-20)

Similar torrent
Forum Topic Author Size
Квесты, я ищу, Поиск предметов, Hidden Object Legacy 3: Witch Island Origin / Наследие 3: Происхождение Острова Ведьмы [RUS / ENG] (2019) Admin 1.1 GB
Фантастика ,Фэнтези 2036, происхождение неизвестно / 2036 Origin Unknown (2018) WEBRip Admin 1.32 GB
Квесты, я ищу, Поиск предметов, Hidden Object Тайное агентство: Дело теней./Enigma Agency: The Case of Shadows Collector's Edition [P] [RUS / ENG] (2013) HOPE 917 MB

_________________
[Profile] [PM]
Display posts from previous:    
Reply to topic

The time now is: Today 01:02

All times are GMT + 4 Hours



You cannot post new topics in this forum
You cannot reply to topics in this forum
You cannot edit your posts in this forum
You cannot delete your posts in this forum
You cannot vote in polls in this forum
You cannot attach files in this forum
You can download files in this forum