Тень и кость / Shadow and Bone (2021) WEB-DLRip (сезон 1, серии 1-8 из 8) SDI Media скачать торрент

Reply to topic


DL-List and Torrent activity [Update пиров]
Size:  7.48 GB   |    Registered:  14 days   |    Completed:  0 times
Seeders:  21  [  1 MB/s  ]   Leechers:  1  [  5 MB/s  ]   Show peers in full details
 
 
 
 
Author Message

trackeroc.info ®

Longevity: 7 years

Posts: 10274

Location: trackeroc.org trackeroc.info trackeroc.ml trackeroc.ga trackeroc.space


Post 23-Apr-2021 22:37

[Quote]

Тень и кость / Shadow and Bone - Производство: США / 21 Laps Entertainment, Netflix
Жанр: фэнтези, боевик, драма
Режиссер: Майрзи Алмас, Ли Толанд Кригер, Дэн Лью
Актеры: Джесси Мей Ли, Арчи Рено, Фредди Картер, Амита Суман, Кит Янг, Бен Барнс, Суджая Дасгупта, Саймон Сирс, Даниэль Галлиган, Дэйзи Хэд
Описание:
В мире, разделенном на две части барьером вечной темноты, где сверхъестественные существа питаются человеческой плотью, девушка-солдат обнаруживает в себе невероятную силу, которая может объединить страну. Но против нее строят заговоры опасные силы. Бандиты, воры, убийцы и святые находятся в состоянии войны, и для выживания потребуется больше, чем магия.

Возраст: 18+ (зрителям, достигшим 18 лет. запрещено для детей)
Дата мировой премьеры: 23 апреля 2021
Цифровой релиз: 23 апреля 2021
Продолжительность: ~00:52:00 серия
Качество видео: WEB-DLRip
Перевод: Дублированный (SDI Media)
Язык озвучки: Русский, английский
Субтитры: русские, английские (отдельно)
Видео: XviD, 704x320, ~1800 Kbps
Аудио 1: AC3, 6 ch, 384 kbps - русский
Аудио 2: AC3, 6 ch, 384 kbps - английский

MediaInfo:

Общее
Полное имя :Shadow.and.Bone.s01e05.avi
Формат : AVI
Формат/Информация : Audio Video Interleave
Размер файла : 1,05 Гбайт
Продолжительность : 58 м. 22 с.
Общий поток : 2587 Кбит/сек
Название фильма : Shadow.and.Bone.s01e05.Skreech
Программа кодирования : VirtualDubMod 1.5.10.2 (build 2540/release)
Видео
Идентификатор : 0
Формат : MPEG-4 Visual
Профиль формата : Advanced [email protected]
Настройки формата : BVOP1 / Custom Matrix
Параметр BVOP формата : 1
Параметр QPel формата : Нет
Параметр GMC формата : Без точки перехода
Параметр матрицы формата : Выборочная
Идентификатор кодека : XVID
Идентификатор кодека/Подсказка : XviD
Продолжительность : 58 м. 22 с.
Битрейт : 1805 Кбит/сек
Ширина : 704 пикселя
Высота : 320 пикселей
Соотношение сторон : 2,2:1
Частота кадров : 23,976 (24000/1001) кадра/сек
Цветовое пространство : YUV
Субдискретизация насыщенности : 4:2:0
Битовая глубина : 8 бит
Тип развёртки : Прогрессивная
Метод сжатия : С потерями
Бит/(Пиксели*Кадры) : 0.334
Размер потока : 754 Мбайт (70%)
Библиотека кодирования : XviD 73
Аудио #1
Идентификатор : 1
Формат : AC-3
Формат/Информация : Audio Coding 3
Коммерческое название : Dolby Digital
Идентификатор кодека : 2000
Продолжительность : 58 м. 22 с.
Вид битрейта : Постоянный
Битрейт : 384 Кбит/сек
Каналы : 6 каналов
Channel layout : L R C LFE Ls Rs
Частота : 48,0 КГц
Частота кадров : 31,250 кадров/сек (1536 SPF)
Битовая глубина : 16 бит
Метод сжатия : С потерями
Размер потока : 160 Мбайт (15%)
Выравнивание : Разделение по промежуткам
Продолжительность промежутка : 42 мс. (1,00 видеокадр)
Время предзагрузки промежутка : 500 мс.
ServiceKind/String : Complete Main
Аудио #2
Идентификатор : 2
Формат : AC-3
Формат/Информация : Audio Coding 3
Коммерческое название : Dolby Digital
Идентификатор кодека : 2000
Продолжительность : 58 м. 22 с.
Вид битрейта : Постоянный
Битрейт : 384 Кбит/сек
Каналы : 6 каналов
Channel layout : L R C LFE Ls Rs
Частота : 48,0 КГц
Частота кадров : 31,250 кадров/сек (1536 SPF)
Битовая глубина : 16 бит
Метод сжатия : С потерями
Размер потока : 160 Мбайт (15%)
Выравнивание : Разделение по промежуткам
Продолжительность промежутка : 42 мс. (1,00 видеокадр)
Время предзагрузки промежутка : 500 мс.
ServiceKind/String : Complete Main
-Скриншоты:


Смотреть онлайн

[trackeroc.org].33002.torrent  Магнет ссылка
Torrent: Registered   [ 2021-04-23 22:37 ]

Скачать торрент

40 KB

Status: checked
Completed: 57 times
Size: 7.48 GB
 

Pro100Moder (27-апр-21)

Similar torrent
Forum Topic Author Size
Квесты, я ищу, Поиск предметов, Hidden Object Wanderlust 3. Shadow of the Monolith. / Жажда странствий 3. Тень монолита. [RUS / ENG] (2019) trackeroc.info 655 MB
Квесты, я ищу, Поиск предметов, Hidden Object The Keeper of Antiques 4: Shadows From the Past / Антиквар 4: Тень Из Прошлого [RUS / ENG] (2018) trackeroc.info 1.26 GB
Сasual games, Тайм менеджмент Роуз Ридл 2: Тень оборотня [RUS] (2018) trackeroc.info 93 MB
Российские сериалы Власик. Тень Сталина (2015) WEBRip (серии 1-14 из 14) Pro100Moder 8.69 GB
[Profile] [PM]
Display posts from previous:    
Reply to topic

The time now is: Today 06:01

All times are GMT + 4 Hours



You cannot post new topics in this forum
You cannot reply to topics in this forum
You cannot edit your posts in this forum
You cannot delete your posts in this forum
You cannot vote in polls in this forum
You cannot attach files in this forum
You can download files in this forum