Туристическая полиция (2018) SATRip (сезон 1, серии 1-24 из 24) скачать торрент

Reply to topic

DL-List and Torrent activity [Update пиров]
Size:  8.21 GB   |    Registered:  2 months 8 days   |    Completed:  0 times

Seeder not seen: Never

 
 
 
 
 
Author Message

Admin ®

Longevity: 5 years 9 months

Posts: 9106

Location: Скачать торрент


Post 17-Aug-2015 00:58

[Quote]

Туристическая полиция - Производство: Россия / Stage 8, Diamond Style Production
Жанр: Комедия
Режиссер: Константин Колесов
Актеры: Анастасия Ивлеева, Михаил Башкатов, Сергей Пиоро, Денис Бузин, Александр Ляпин, Павел Комаров, Светлана Листова, Анастасия Немец, Евгений Кушпель, Сергей Голюдов
Описание:
Сотрудник туристической полиции Лера мечтает расследовать серьезные дела и опасные преступления. Но в ее отделе они встречаются так же редко, как хорошее настроение у начальника и сообразительность у коллег по службе. Несмотря на это, Лера принципиально отказывается от «тепленького местечка», заботливо подготовленного отцом-адмиралом, и не бросает работу в спецподразделении по охране общественного порядка Сочи. Но только как продолжать службу и охранять покой гостей города, связавшись с вором и аферистом?

Возраст: 16+ (зрителям, достигшим 16 лет)
Дата российской премьеры: 25 февраля 2019
Продолжительность: ~00:27:00 серия
Качество видео: SATRip
Видео: Xvid, 720x400 (16:9), ~1600 Kbps
Аудио: MP3, 2 ch, 192 Kbps

Mediainfo:

Общее
Формат : AVI
Формат/Информация : Audio Video Interleave
Размер файла : 350 Мбайт
Продолжительность : 27 м. 9 с.
Общий поток : 1804 Кбит/сек
Программа кодирования : VirtualDubMod 1.5.10.3 (build 2550/release)
Библиотека кодирования : VirtualDubMod build 2550/release
Видео
Идентификатор : 0
Формат : MPEG-4 Visual
Профиль формата : Advanced [email protected]
Настройки формата : BVOP1
Параметр BVOP формата : 1
Параметр QPel формата : Нет
Параметр GMC формата : Без точки перехода
Параметр матрицы формата : Default (MPEG)
Идентификатор кодека : XVID
Идентификатор кодека/Подсказка : XviD
Продолжительность : 27 м. 9 с.
Битрейт : 1603 Кбит/сек
Ширина : 720 пикселей
Высота : 400 пикселей
Соотношение сторон : 16:9
Частота кадров : 25,000 кадров/сек
Цветовое пространство : YUV
Субдискретизация насыщенности : 4:2:0
Битовая глубина : 8 бит
Тип развёртки : Прогрессивная
Метод сжатия : С потерями
Бит/(Пиксели*Кадры) : 0.223
Размер потока : 311 Мбайт (89%)
Библиотека кодирования : XviD 65
Аудио
Идентификатор : 1
Формат : MPEG Audio
Версия формата : Version 1
Профиль формата : Layer 3
Настройки формата : Joint stereo / MS Stereo
Идентификатор кодека : 55
Идентификатор кодека/Подсказка : MP3
Продолжительность : 27 м. 9 с.
Вид битрейта : Постоянный
Битрейт : 192 Кбит/сек
Каналы : 2 канала
Частота : 48,0 КГц
Частота кадров : 41,667 кадра/сек (1152 SPF)
Метод сжатия : С потерями
Размер потока : 37,3 Мбайт (11%)
Выравнивание : Соединение по промежуткам
Продолжительность промежутка : 40 мс. (1,00 видеокадр)
Время предзагрузки промежутка : 504 мс.
Библиотека кодирования : LAME3.99r
Настройки программы : -m j -V 4 -q 2 -lowpass 18.6 -b 192
-Скриншоты:


Смотреть онлайн


[trackeroc.org].7584.torrent 
Torrent: Registered   [ 2019-12-10 01:07 ]

Скачать торрент

43 KB

Status: checked
Completed: 97 times
Size: 8.21 GB
 

Similar torrent
Forum Topic Author Size
RPG, ролевые игры Star Traders: Frontiers [v3.0.41] (2018) (ENG) Admin 250 MB
Зомби игры, Survival, Horror PLAY WITH ME (2018) [En/Pl] (1.39.57 x64) Admin 377 MB
RPG, ролевые игры Heartbound v1.0.90 [Early Access] (2018) (ENG) Admin 228 MB
Автосимуляторы BEWARE / Driving Survival v007 (2018) (ENG) [Бета] Admin 1.48 GB
Автосимуляторы Pure Rock Crawling v17.02.2020 [Early Access] (2018) (ENG) Admin 1.58 GB

_________________


Last edited by Admin on 2018-05-18 17:50; edited 2 times in total
[Profile] [PM]
Display posts from previous:    
Reply to topic

The time now is: Today 16:58

All times are GMT + 4 Hours



You cannot post new topics in this forum
You cannot reply to topics in this forum
You cannot edit your posts in this forum
You cannot delete your posts in this forum
You cannot vote in polls in this forum
You cannot attach files in this forum
You can download files in this forum