Варяг / The Northman (2022) HDRip-AVC | A скачать торрент

Reply to topic


DL-List and Torrent activity [Update пиров]
Size:  3.49 GB   |    Registered:  1 month 18 days   |    Completed:  0 times
Seeders:  14  [  482 KB/s  ]   Leechers:  2  [  3 MB/s  ]   Show peers in full details
 
 
 
 
Author Message

.:Rtuty:. ®

Longevity: 2 months 21 day

Posts: 33

Location: Москва


Post 26-Jun-2022 16:39

[Quote]

Информация о фильме- Название: Варяг
Оригинальное название: The Northman
Год выпуска: 2022
Страна/Студия: США / Focus Features, Perfect World (Beijing) Pictures Co., Regency Television, Square Peg, Universal Pictures
Жанр: Фэнтези, боевик, триллер, драма, приключения, история
Продолжительность: 02:16:53
Субтитры: Нет
Перевод: Авторский (одноголосый закадровый) - Юрий Сербин-Режиссер: Роберт Эггерс--В ролях: Александр Скарсгард, Николь Кидман, Клас Банг, Итэн Хоук, Аня Тейлор-Джой, Густав Линд, Эллиотт Роуз, Уиллем Дефо, Фил Мартин, Эльдар Скар и другие.-Описание: Конец IX века, небольшой остров в Северной Атлантике. Король Орвандилл с серьёзным ранением возвращается из похода к жене Гудрун и юному сыну Амлету. Мечтая отправиться на очередное сражение и умереть на поле боя, он передаёт трон сыну, но тут же погибает от руки брата Фьолнира — тот отрубает монарху голову и забирает королевство и Гудрун себе. Мальчику удаётся сбежать.
Спустя десятилетия Амлет вырастает в крепкого безжалостного викинга и однажды в очередной разорённой деревне встречает ведьму, которая наставляет его на пусть мести. Узнав, что Фьолнир с Гудрун поселились в Исландии, Амлет отправляется туда с партией славянских рабов. На борту его внимание привлекает Ольга из Березового леса.--Информация о файле

Качество: HDRip-AVC
Формат: MKV
Видео кодек: x264
Аудио кодек: AC3
Видео: 1024x512 at 23.976 fps, [email protected], ~3004 kbps
Аудио: AC3, 6 ch, ~640 kbps - | Русский | |--

Медиа Инфо

x264 [info]: frame I:955 Avg QP:14.24 size: 71191
x264 [info]: frame P:41399 Avg QP:16.24 size: 28990
x264 [info]: frame B:154574 Avg QP:18.30 size: 11750
x264 [info]: consecutive B-frames: 2.0% 2.1% 7.7% 15.7% 14.0% 45.8% 5.3% 3.0% 2.5% 0.3% 0.3% 0.5% 0.2%
Общее
Уникальный идентификатор : 228323815085169037477574112355552193987 (0xABC5913739C25859AF230435694DEDC3)
Полное имя : D:Варяг (Сербин).mkv
Формат : Matroska
Версия формата : Version 4 / Version 2
Размер файла : 3,49 Гбайт
Продолжительность : 2 ч. 16 м.
Общий поток : 3 646 Кбит/сек
Дата кодирования : UTC 2022-06-25 16:17:47
Программа кодирования : mkvmerge v7.7.0 ('Six Voices') 32bit built on Feb 28 2015 23:23:00
Библиотека кодирования : libebml v1.3.1 + libmatroska v1.4.2
Обложка : Yes
Attachments : cover.jpg / cover 2.jpg
Видео
Идентификатор : 1
Формат : AVC
Формат/Информация : Advanced Video Codec
Профиль формата : [email protected]
Настройки формата : CABAC / 11 Ref Frames
Параметр CABAC формата : Да
Параметр RefFrames формата : 11 кадров
Идентификатор кодека : V_MPEG4/ISO/AVC
Продолжительность : 2 ч. 16 м.
Битрейт : 3 004 Кбит/сек
Ширина : 1 024 пикселя
Высота : 512 пикселей
Соотношение сторон : 2,000
Режим частоты кадров : Постоянный
Частота кадров : 23,976 (24000/1001) кадра/сек
Цветовое пространство : YUV
Субдискретизация насыщенности : 4:2:0
Битовая глубина : 8 бит
Тип развёртки : Прогрессивная
Бит/(Пиксели*Кадры) : 0.239
Размер потока : 2,87 Гбайт (82%)
Заголовок : -=DoMiNo=-
Библиотека кодирования : x264 core 164 r3094 bfc87b7
Настройки программы : cabac=1 / ref=11 / deblock=1:-2:-2 / analyse=0x3:0x133 / me=umh / subme=10 / psy=1 / psy_rd=1.05:0.15 / mixed_ref=1 / me_range=32 / chroma_me=1 / trellis=2 / 8x8dct=1 / cqm=0 / deadzone=21,11 / fast_pskip=0 / chroma_qp_offset=-3 / threads=16 / lookahead_threads=4 / sliced_threads=0 / nr=0 / decimate=1 / interlaced=0 / bluray_compat=0 / constrained_intra=0 / bframes=12 / b_pyramid=2 / b_adapt=2 / b_bias=0 / direct=3 / weightb=1 / open_gop=0 / weightp=2 / keyint=250 / keyint_min=23 / scenecut=40 / intra_refresh=0 / rc_lookahead=60 / rc=crf / mbtree=0 / crf=18.5 / qcomp=0.65 / qpmin=0 / qpmax=69 / qpstep=4 / vbv_maxrate=50000 / vbv_bufsize=62500 / crf_max=0.0 / nal_hrd=none / filler=0 / ip_ratio=1.35 / pb_ratio=1.25 / aq=3:0.90
Язык : English
Default : Да
Forced : Нет
Цветовой диапазон : Limited
Основные цвета : BT.709
Характеристики трансфера : BT.709
Коэффициенты матрицы : BT.709
Аудио
Идентификатор : 2
Формат : AC-3
Формат/Информация : Audio Coding 3
Коммерческое название : Dolby Digital
Идентификатор кодека : A_AC3
Продолжительность : 2 ч. 16 м.
Вид битрейта : Постоянный
Битрейт : 640 Кбит/сек
Каналы : 6 каналов
Channel layout : L R C LFE Ls Rs
Частота : 48,0 КГц
Частота кадров : 31,250 кадров/сек (1536 SPF)
Метод сжатия : С потерями
Размер потока : 627 Мбайт (18%)
Service kind : Complete Main
Default : Да
Forced : Нет
Меню
00:00:00.000 : en:Chapter 01
00:08:53.992 : en:Chapter 02
00:15:47.613 : en:Chapter 03
00:22:04.615 : en:Chapter 04
00:30:23.697 : en:Chapter 05
00:39:44.340 : en:Chapter 06
00:46:18.401 : en:Chapter 07
00:51:43.267 : en:Chapter 08
00:58:14.032 : en:Chapter 09
01:05:22.335 : en:Chapter 10
01:11:55.019 : en:Chapter 11
01:16:49.563 : en:Chapter 12
01:23:36.094 : en:Chapter 13
01:27:16.690 : en:Chapter 14
01:35:42.862 : en:Chapter 15
01:41:02.390 : en:Chapter 16
01:46:38.225 : en:Chapter 17
01:55:44.855 : en:Chapter 18
02:01:06.968 : en:Chapter 19
02:08:41.255 : en:Chapter 20

Скриншоты



Смотреть онлайн

[trackeroc.org].34804.torrent  Магнет ссылка
Torrent: Registered   [ 2022-06-26 16:39 ]

Скачать торрент

18 KB

Status: checked
Completed: 60 times
Size: 3.49 GB
 

trackeroc.info (26-июн-22)


_________________
[Profile] [PM]
Display posts from previous:    
Reply to topic

The time now is: Today 04:31

All times are GMT + 4 Hours



You cannot post new topics in this forum
You cannot reply to topics in this forum
You cannot edit your posts in this forum
You cannot delete your posts in this forum
You cannot vote in polls in this forum
You cannot attach files in this forum
You can download files in this forum