Яга. Кошмар тёмного леса (2020) BDRip GER Transfer скачать торрент

Reply to topic

DL-List and Torrent activity [Update пиров]
Size:  1.46 GB   |    Registered:  20 days   |    Completed:  0 times
Seeders:  4  [  12 KB/s  ]   Show peers in full details
 
 
 
 
Author Message

Captain ®

Longevity: 6 years 2 months

Posts: 2456

Location: Earth


Post 13-Jun-2020 12:32

[Quote]

Яга. Кошмар тёмного леса - Производство: Россия / Нон-стоп Продакшн, QS Films
Жанр: Ужасы
Режиссер: Святослав Подгаевский
Актеры: Олег Чугунов, Глаша Голубева, Артём Жигулин, Игорь Хрипунов, Светлана Устинова, Алексей Розин, Марьяна Спивак, Марта Тимофеева, Даниил Филиппов, Евгения Евстигнеева, Ольга Макеева
Описание:
В центре сюжета — молодая семья, которая переехала в новую квартиру на окраине города. Нанятая ими для новорожденной дочери няня быстро вошла в доверие. Однако старший мальчик, Егор, рассказывает о пугающем поведении женщины, но родители ему не верят. Камеры наблюдения, установленные отцом для успокоения, лишь подтверждают — всё в порядке. И вот однажды Егор, вернувшись домой, не находит никаких следов ни няни, ни маленькой сестры, а родители пребывают в странном трансе и даже не помнят, что у них была дочь. Тогда Егор вместе с друзьями отправляется на поиски, в ходе которых выяснится, что няня — древний славянский демон.

Возраст: 16+ (зрителям, достигшим 16 лет)
Дата мировой премьеры: 1 марта 2020
Дата российской премьеры: 27 февраля 2020
Цифровой релиз: 1 апреля 2020
Продолжительность: 01:36:45
Качество видео: BDRip
Перевод: Не требуется (русский) Лицензия
Субтитры: Отсутствуют
Видео: XviD, 720x304, ~1704 Kbps
Аудио: AC3, 6 ch, 448 kbps

MediaInfo:

Общее
Формат : AVI
Формат/Информация : Audio Video Interleave
Размер файла : 1,46 Гбайт
Продолжительность : 1 ч. 36 м.
Общий поток : 2161 Кбит/сек
Программа кодирования : VirtualDubMod 1.5.10.3 | www.virtualdub-fr.org || (build 2550/release)
Авторское право : MegaPeer
Видео
Идентификатор : 0
Формат : MPEG-4 Visual
Профиль формата : Advanced [email protected]
Настройки формата : BVOP1 / Custom Matrix
Параметр BVOP формата : 1
Параметр QPel формата : Нет
Параметр GMC формата : Без точки перехода
Параметр матрицы формата : Выборочная
Идентификатор кодека : XVID
Идентификатор кодека/Подсказка : XviD
Продолжительность : 1 ч. 36 м.
Битрейт : 1704 Кбит/сек
Ширина : 720 пикселей
Высота : 304 пикселя
Соотношение сторон : 2,35:1
Частота кадров : 24,000 кадра/сек
Цветовое пространство : YUV
Субдискретизация насыщенности : 4:2:0
Битовая глубина : 8 бит
Тип развёртки : Прогрессивная
Метод сжатия : С потерями
Бит/(Пиксели*Кадры) : 0.324
Размер потока : 1,15 Гбайт (79%)
Библиотека кодирования : XviD 73
Аудио
Идентификатор : 1
Формат : AC-3
Формат/Информация : Audio Coding 3
Коммерческое название : Dolby Digital
Идентификатор кодека : 2000
Продолжительность : 1 ч. 36 м.
Вид битрейта : Постоянный
Битрейт : 448 Кбит/сек
Каналы : 6 каналов
ChannelLayout : L R C LFE Ls Rs
Частота : 48,0 КГц
Частота кадров : 31,250 кадров/сек (1536 SPF)
Метод сжатия : С потерями
Размер потока : 310 Мбайт (21%)
Выравнивание : Разделение по промежуткам
Продолжительность промежутка : 42 мс. (1,00 видеокадр)
Время предзагрузки промежутка : 500 мс.
ServiceKind/String : Complete Main
-Скриншоты:


Смотреть онлайн

[trackeroc.org].30890.torrent  Магнет ссылка
Torrent: Registered   [ 2020-06-13 12:32 ]

Скачать торрент

15 KB

Status: checked
Completed: 8 times
Size: 1.46 GB
 

Admin (13-июн-20)

Similar torrent
Forum Topic Author Size
Ужасы ,мистика ,триллеры Кошмар на улице Вязов: Антология / A Nightmare On Elm Street: Anthology (1984-2010) BDRip [H.264/1080p-LQ] Captain 39.31 GB
Ужасы ,мистика ,триллеры Кошмар на улице Вязов 3: Воины сна / A Nightmare on Elm Street 3: Dream Warriors (1987) BDRip [H.264] Captain 4.48 GB
Зарубежные сериалы Кошмар в летнем лагере / Элита / The A List (2018) WEB-DL (сезон 1, серии 1-13 из 13) SDI Media Captain 19.25 GB
Ужасы ,мистика ,триллеры Кошмар на улице Вязов / A Nightmare on Elm Street (2010) BDRip [720p] Captain 5.8 GB

_________________
[Profile] [PM]
Display posts from previous:    
Reply to topic

The time now is: Today 20:53

All times are GMT + 4 Hours



You cannot post new topics in this forum
You cannot reply to topics in this forum
You cannot edit your posts in this forum
You cannot delete your posts in this forum
You cannot vote in polls in this forum
You cannot attach files in this forum
You can download files in this forum